<?xml version="1.0" standalone="no"?>
<!DOCTYPE svg PUBLIC "-//W3C//DTD SVG 1.1//EN" "http://www.w3.org/Graphics/SVG/1.1/DTD/svg11.dtd" >
<svg>
<metadata>
Created by FontForge 20090914 at Wed Oct 31 07:33:27 2012
 By www-data
Copyright (c) 2011 by Pablo Impallari. www.impallari.com Igino Marini. www.ikern.com. All rights reserved.
</metadata>
<defs>
<font id="Cabin-Regular" horiz-adv-x="616" >
  <font-face 
    font-family="Cabin"
    font-weight="400"
    font-stretch="normal"
    units-per-em="1000"
    panose-1="2 11 8 3 5 2 2 2 0 4"
    ascent="800"
    descent="-200"
    x-height="490"
    cap-height="700"
    bbox="-39 -250 1165 964.001"
    underline-thickness="50"
    underline-position="-50"
    unicode-range="U+0020-U+2122"
  />
<missing-glyph horiz-adv-x="250" 
d="M162 250h-90v110h90v-110z" />
    <glyph glyph-name=".notdef" horiz-adv-x="250" 
d="M162 250h-90v110h90v-110z" />
    <glyph glyph-name="space" unicode=" " horiz-adv-x="225" 
 />
    <glyph glyph-name="exclam" unicode="!" horiz-adv-x="242" 
d="M183 750l-30 -550h-64l-30 550h124zM163 0h-84v86h84v-86z" />
    <glyph glyph-name="quotedbl" unicode="&#x22;" horiz-adv-x="402" 
d="M362 750l-20 -300h-52l-20 300h92zM134 750l-20 -300h-54l-20 300h94z" />
    <glyph glyph-name="numbersign" unicode="#" horiz-adv-x="704" 
d="M672 507l-29 -84h-116l-48 -123h128l-38 -84h-122l-87 -227h-80l87 227h-133l-87 -227h-80l86 227h-120l37 84h115l48 123h-126l29 84h129l74 193h80l-74 -193h133l75 193h80l-74 -193h113zM446 423h-132l-48 -123h132z" />
    <glyph glyph-name="dollar" unicode="$" horiz-adv-x="514" 
d="M285 82l15.0049 -114h-89l17 113c-78 4 -136.667 16.667 -176 38l12 109c46.667 -38.667 108.667 -58 186 -58c73.333 0 110 21 110 63c0 19.333 -7.83301 35 -23.5 47s-35.334 22.333 -59.001 31s-49.167 17 -76.5 25s-52.833 17.667 -76.5 29
s-43.334 25.666 -59.001 42.999s-23.5 40 -23.5 68c0 18.667 3.5 36.834 10.5 54.501s18 33.334 33 47.001s34.333 25.167 58 34.5s51.834 15.666 84.501 18.999l-17 117h90l-16 -117c72 -4 125.667 -16.333 161 -37l-9 -96c-68 32 -123.667 48 -167 48
c-80.667 0 -121 -19.333 -121 -58c0 -18 8.16699 -32.333 24.5 -43s36.666 -19.834 60.999 -27.501s50.666 -15.5 78.999 -23.5s54.666 -18.333 78.999 -31s44.666 -29.167 60.999 -49.5s24.5 -46.833 24.5 -79.5c0 -14.667 -2.33301 -30.167 -7 -46.5
s-14 -31.666 -28 -45.999s-33.667 -27 -59 -38s-58.333 -18.167 -99 -21.5z" />
    <glyph glyph-name="percent" unicode="%" horiz-adv-x="840" 
d="M237 -12h-75l421 712h74zM181 333c-42.667 0 -77.6689 15.6641 -105.002 46.9971s-41 76.333 -41 135c0 30.667 4 57.834 12 81.501s19 43.5 33 59.5s30.167 28.167 48.5 36.5s37.5 12.5 57.5 12.5c20.667 0 39.834 -4 57.501 -12s33 -19.667 46 -35
s23.333 -34.166 31 -56.499s11.5 -48.166 11.5 -77.499c0 -30.667 -3.83301 -57.834 -11.5 -81.501s-18.167 -43.667 -31.5 -60s-29.166 -28.666 -47.499 -36.999s-38.5 -12.5 -60.5 -12.5zM184.998 652.997c-12.667 0 -24.666 -3.16699 -35.999 -9.5
s-21.333 -15.5 -30 -27.5s-15.5 -26.667 -20.5 -44s-7.5 -36.333 -7.5 -57c0 -40 9 -71.667 27 -95s39.333 -35 64 -35c26.667 0 49 12.5 67 37.5s27 58.833 27 101.5c0 19.333 -2.33301 37 -7 53s-11.334 29.667 -20.001 41s-18.5 20 -29.5 26s-22.5 9 -34.5 9z
M653.999 -14.0029c-42.667 0 -77.6689 15.6641 -105.002 46.9971s-41 76.333 -41 135c0 30.667 4 57.834 12 81.501s19 43.5 33 59.5s30.167 28.167 48.5 36.5s37.5 12.5 57.5 12.5c20.667 0 39.834 -4 57.501 -12s33 -19.667 46 -35s23.333 -34.166 31 -56.499
s11.5 -48.166 11.5 -77.499c0 -30.667 -3.83301 -57.834 -11.5 -81.501s-18.167 -43.667 -31.5 -60s-29.166 -28.666 -47.499 -36.999s-38.5 -12.5 -60.5 -12.5zM657.997 305.994c-12.667 0 -24.666 -3.16699 -35.999 -9.5s-21.333 -15.5 -30 -27.5s-15.5 -26.667 -20.5 -44
s-7.5 -36.333 -7.5 -57c0 -40 9 -71.667 27 -95s39.333 -35 64 -35c26.667 0 49 12.5 67 37.5s27 58.833 27 101.5c0 19.333 -2.33301 37 -7 53s-11.334 29.667 -20.001 41s-18.5 20 -29.5 26s-22.5 9 -34.5 9z" />
    <glyph glyph-name="ampersand" unicode="&#x26;" horiz-adv-x="611" 
d="M593 0l-92.001 -0.00195312l-44 46c-29.333 -25.333 -58.333 -43.166 -87 -53.499s-62.334 -15.5 -101.001 -15.5c-40 0 -74.5 4.5 -103.5 13.5s-53.167 21.667 -72.5 38s-33.666 35.833 -42.999 58.5s-14 47.667 -14 75c0 76.667 42 144.667 126 204
c-50 60.667 -75 117.334 -75 170.001c0 26 5.16699 49.167 15.5 69.5s24.333 37.833 42 52.5s38.334 25.834 62.001 33.501s48.834 11.5 75.501 11.5c48 0 83.833 -11.5 107.5 -34.5s35.5 -53.5 35.5 -91.5c0 -79.333 -54.667 -153 -164 -221l190 -195
c21.333 27.333 34.333 90.666 39 189.999h81c-2.66699 -104 -24.334 -187.667 -65.001 -251zM269.999 633.998c-28.667 0 -52.833 -8.66699 -72.5 -26s-29.5 -42 -29.5 -74c0 -40.667 18.333 -83.334 55 -128.001l53 41l20 17c19.333 16.667 33 32.334 41 47.001
s12 30.667 12 48c0 24 -7.16699 42.5 -21.5 55.5s-33.5 19.5 -57.5 19.5zM412 104.998l-208 208c-54 -38 -81 -86 -81 -144c0 -36.667 12.5 -66.5 37.5 -89.5s61.833 -34.5 110.5 -34.5c58.667 0 105.667 20 141 60z" />
    <glyph glyph-name="quotesingle" unicode="'" horiz-adv-x="182" 
d="M141 750l-18 -300h-64l-18 300h100z" />
    <glyph glyph-name="parenleft" unicode="(" horiz-adv-x="261" 
d="M237 -136l-79.002 0.00292969c-20 30 -37.333 60.5 -52 91.5s-26.667 64.167 -36 99.5s-16.333 73.666 -21 114.999s-7 87 -7 137c0 50.667 2.33301 96.667 7 138s11.834 79.666 21.501 114.999s21.834 68.333 36.501 99s31.667 61 51 91h79
c-82 -133.333 -123 -281 -123 -443c0 -162.667 41 -310.334 123 -443.001z" />
    <glyph glyph-name="parenright" unicode=")" horiz-adv-x="261" 
d="M103 -136l-79.001 -0.00292969c82 132.667 123 280.334 123 443.001c0 162 -41 309.667 -123 443h79c19.333 -30 36.333 -60.333 51 -91s26.834 -63.667 36.501 -99s16.834 -73.666 21.501 -114.999s7 -87.333 7 -138c0 -50 -2.33301 -95.667 -7 -137
s-11.834 -79.666 -21.501 -114.999s-21.667 -68.5 -36 -99.5s-31.5 -61.5 -51.5 -91.5z" />
    <glyph glyph-name="asterisk" unicode="*" horiz-adv-x="426" 
d="M315 427l-102 133l-100 -136l-32 32l108 117l-156 65l23 41l148 -86l-13 156h46l-16 -156l149 86l23 -42l-158 -63l113 -115z" />
    <glyph glyph-name="plus" unicode="+" horiz-adv-x="463" 
d="M416 238h-145v-136h-80v136h-145v86h145v128h80v-128h145v-86z" />
    <glyph glyph-name="comma" unicode="," horiz-adv-x="216" 
d="M158 0l-78 -109l-23 13l35 87l-34 9v86h100v-86z" />
    <glyph glyph-name="hyphen" unicode="-" horiz-adv-x="424" 
d="M367 238h-310v86h310v-86z" />
    <glyph glyph-name="period" unicode="." horiz-adv-x="204" 
d="M147 0h-90v86h90v-86z" />
    <glyph glyph-name="slash" unicode="/" horiz-adv-x="532" 
d="M497 700l-378 -785h-100l378 785h100z" />
    <glyph glyph-name="zero" unicode="0" horiz-adv-x="714" 
d="M351 -14c-43.333 0 -82.667 8.33398 -118 25.001s-65.5 40.334 -90.5 71.001s-44.5 67.667 -58.5 111s-21 91.666 -21 144.999c0 55.333 7.66699 106.166 23 152.499s36.5 86 63.5 119s58.833 58.667 95.5 77s76 27.5 118 27.5c41.333 0 79.666 -8.83301 114.999 -26.5
s65.833 -42.167 91.5 -73.5s45.667 -69 60 -113s21.5 -92 21.5 -144c0 -56 -7.16699 -106.833 -21.5 -152.5s-34.666 -84.667 -60.999 -117s-58 -57.333 -95 -75s-77.833 -26.5 -122.5 -26.5zM360.999 628.001c-27.333 0 -53.001 -6.50195 -77.001 -19.502
s-44.833 -31.833 -62.5 -56.5s-31.667 -55 -42 -91s-15.5 -77 -15.5 -123c0 -88 17 -154.333 51 -199s80 -67 138 -67c60.667 0 109 23.833 145 71.5s54 118.834 54 213.501c0 42.667 -4.83301 80.834 -14.5 114.501s-23 62 -40 85s-37.167 40.667 -60.5 53
s-48.666 18.5 -75.999 18.5z" />
    <glyph glyph-name="one" unicode="1" horiz-adv-x="355" 
d="M254 0l-100 -0.00195312v563c-36 -30 -70.667 -50.333 -104 -61l-16 89c14 4.66699 28.167 10.834 42.5 18.501s28 16.334 41 26.001s25 20 36 31s20.167 22.167 27.5 33.5h73v-700z" />
    <glyph glyph-name="two" unicode="2" horiz-adv-x="524" 
d="M470 0l-414.004 -0.00195312c60.667 86 110.334 158.833 149.001 218.5s67.334 106.834 86.001 141.501c37.333 69.333 56 120 56 152c0 36 -10.833 63.833 -32.5 83.5s-51.5 29.5 -89.5 29.5c-62 0 -116.333 -31 -163 -93l-12 85
c4.66699 8.66699 12.834 18.667 24.501 30s26 22 43 32s36.667 18.333 59 25s46.5 10 72.5 10c36.667 0 67.5 -5.83301 92.5 -17.5s45 -26.667 60 -45s25.667 -39 32 -62s9.5 -45.5 9.5 -67.5c0 -24 -3.83301 -49.833 -11.5 -77.5s-20 -58.667 -37 -93
s-39.167 -73.166 -66.5 -116.499s-60.666 -93 -99.999 -149h242v-86z" />
    <glyph glyph-name="three" unicode="3" horiz-adv-x="547" 
d="M230 -14c-20 0 -40.1689 1.83398 -60.502 5.50098s-39.333 8.33398 -57 14.001s-33 11.5 -46 17.5s-21.833 11.333 -26.5 16l23 88c18.667 -10 35 -18.333 49 -25s27.167 -12.334 39.5 -17.001s24.833 -8 37.5 -10s26.667 -3 42 -3c20 0 39.167 2.5 57.5 7.5
s34.166 13.167 47.499 24.5s24 26 32 44s12 39.667 12 65c0 20 -2.83301 38 -8.5 54s-15 29.667 -28 41s-30 20 -51 26s-47.167 9 -78.5 9h-73l10 76h37c60.667 0 103.667 9.66699 129 29s38 48 38 86c0 62.667 -39.667 94 -119 94c-56.667 0 -101.667 -13.667 -135 -41
l-17 81c10.667 10.667 29.834 21 57.501 31s62.5 15 104.5 15c44 0 79.833 -5.83301 107.5 -17.5s49.334 -26.334 65.001 -44.001s26.334 -37 32.001 -58s8.5 -41.167 8.5 -60.5c0 -28 -6.66699 -53.5 -20 -76.5s-37 -46.167 -71 -69.5c77.333 -26 116 -84 116 -174
c0 -36 -6.66699 -68.167 -20 -96.5s-31.5 -52.333 -54.5 -72s-50 -34.5 -81 -44.5s-63.833 -15 -98.5 -15z" />
    <glyph glyph-name="four" unicode="4" horiz-adv-x="559" 
d="M500 190h-85v-190h-100v190h-301l322 510h79v-424h85v-86zM315 276v254l-153 -254h153z" />
    <glyph glyph-name="five" unicode="5" horiz-adv-x="541" 
d="M220 -14c-14.667 0 -31 1.1709 -49 3.50391s-35.333 5.5 -52 9.5s-31.167 8.33301 -43.5 13s-20.5 9 -24.5 13l23 89c48 -28 96.333 -42 145 -42c23.333 0 45 4.16699 65 12.5s37.5 19.666 52.5 33.999s26.833 31.166 35.5 50.499s13 40.333 13 63
c0 42 -16.5 73 -49.5 93s-86.833 30 -161.5 30h-85l42 345h318l-9 -86h-233l-20 -174c54 0 100.167 -4.16699 138.5 -12.5s69.5 -20.833 93.5 -37.5s41.667 -37.834 53 -63.501s17 -55.834 17 -90.501c0 -37.333 -7.33301 -71.333 -22 -102s-34.167 -57 -58.5 -79
s-52.833 -39 -85.5 -51s-67 -18 -103 -18z" />
    <glyph glyph-name="six" unicode="6" horiz-adv-x="568" 
d="M281 -14c-33.333 0 -63.332 5 -89.999 15s-49.667 25.333 -69 46s-34.166 47 -44.499 79s-15.5 70 -15.5 114c0 65.333 10.167 126 30.5 182s45.666 104.5 75.999 145.5s63 73.167 98 96.5s66.833 35.333 95.5 36l65 -38c-26.667 -12 -52.667 -25.667 -78 -41
s-49 -34.5 -71 -57.5s-42.167 -51.167 -60.5 -84.5s-33.833 -74 -46.5 -122c30.667 42 77.667 63 141 63c30 0 58 -4.5 84 -13.5s48.5 -22 67.5 -39s33.833 -38.167 44.5 -63.5s16 -54 16 -86c0 -32.667 -5.83301 -63 -17.5 -91s-28.167 -52.5 -49.5 -73.5
s-46.833 -37.5 -76.5 -49.5s-62.834 -18 -99.501 -18zM303.001 339c-19.333 0 -37.498 -3.33105 -54.498 -9.99805s-31.833 -16 -44.5 -28s-22.834 -26.5 -30.501 -43.5s-11.5 -35.833 -11.5 -56.5c0 -22 3.33301 -41.167 10 -57.5s16 -30 28 -41s26 -19.333 42 -25
s33 -8.5 51 -8.5c22 0 41.333 4 58 12s30.667 18.667 42 32s19.833 28.666 25.5 45.999s8.5 35.666 8.5 54.999c0 16 -2.16699 31.5 -6.5 46.5s-11.5 28.333 -21.5 40s-22.833 21 -38.5 28s-34.834 10.5 -57.501 10.5z" />
    <glyph glyph-name="seven" unicode="7" horiz-adv-x="502" 
d="M492 700l-303 -700h-100l265 614h-315v86h453z" />
    <glyph glyph-name="eight" unicode="8" horiz-adv-x="609" 
d="M296 -14c-40 0 -74.8291 5.50293 -104.496 16.5029s-54.334 25.833 -74.001 44.5s-34.334 40.167 -44.001 64.5s-14.5 50.166 -14.5 77.499c0 77.333 44.667 139.666 134 186.999c-62 48 -93 102.667 -93 164c0 24 4 46.667 12 68s20.333 39.666 37 54.999
s38 27.5 64 36.5s57.667 13.5 95 13.5c36 0 66.667 -4.16699 92 -12.5s46.166 -19.666 62.499 -33.999s28.333 -31.166 36 -50.499s11.5 -39.666 11.5 -60.999c0 -18 -1.83301 -33.833 -5.5 -47.5s-10 -26.834 -19 -39.501s-21 -25.334 -36 -38.001s-33.833 -27 -56.5 -43
c54 -18.667 93.5 -42.834 118.5 -72.501s37.5 -68.5 37.5 -116.5c0 -26.667 -5.5 -52.667 -16.5 -78s-27.167 -48 -48.5 -68s-47.833 -36 -79.5 -48s-67.834 -18 -108.501 -18zM187.004 534.003c0 -22.667 9.99902 -43.999 29.999 -63.999s47 -36.333 81 -49
c38.667 11.333 67.834 28.166 87.501 50.499s29.5 46.833 29.5 73.5c0 26 -9.66699 46.333 -29 61s-47 22 -83 22s-64.333 -8.16699 -85 -24.5s-31 -39.5 -31 -69.5zM306.003 338.004c-44 -8.66699 -78.832 -25.165 -104.499 -49.498s-38.5 -57.5 -38.5 -99.5
c0 -38.667 11.833 -67.834 35.5 -87.501s57.5 -29.5 101.5 -29.5c21.333 0 41 3.16699 59 9.5s33.667 15.166 47 26.499s23.666 24.833 30.999 40.5s11 32.5 11 50.5c0 34 -13.167 63.167 -39.5 87.5s-60.5 41.5 -102.5 51.5z" />
    <glyph glyph-name="nine" unicode="9" horiz-adv-x="570" 
d="M288 714c28 0 55.1699 -4.00391 81.5029 -12.0039s49.666 -21.667 69.999 -41s36.666 -45.166 48.999 -77.499s18.5 -72.833 18.5 -121.5c0 -73.333 -10.167 -138.666 -30.5 -195.999s-45.333 -105.666 -75 -144.999s-61.334 -69.333 -95.001 -90
s-63.834 -31 -90.501 -31l-73 38c27.333 12.667 54.833 27.5 82.5 44.5s53.167 37.333 76.5 61s43.333 51.167 60 82.5s28 68 34 110c-13.333 -18 -32.666 -32 -57.999 -42s-52.333 -15 -81 -15c-66.667 0 -118.667 17 -156 51s-56 84.333 -56 151c0 34 6 65.167 18 93.5
s28.667 52.833 50 73.5s46.833 36.834 76.5 48.501s62.5 17.5 98.5 17.5zM266.003 360.996c20 0 38.499 3.33301 55.499 10s31.833 16.167 44.5 28.5s22.667 27 30 44s11 36.167 11 57.5c0 20.667 -3.5 39.167 -10.5 55.5s-16.333 30 -28 41s-25.5 19.333 -41.5 25
s-33 8.5 -51 8.5c-22 0 -41.333 -4 -58 -12s-30.667 -18.667 -42 -32s-19.833 -28.833 -25.5 -46.5s-8.5 -35.834 -8.5 -54.501c0 -16 2.16699 -31.667 6.5 -47s11.333 -28.666 21 -39.999s22.334 -20.5 38.001 -27.5s35.167 -10.5 58.5 -10.5z" />
    <glyph glyph-name="colon" unicode=":" horiz-adv-x="204" 
d="M147 354h-90v86h90v-86zM147 0h-90v86h90v-86z" />
    <glyph glyph-name="semicolon" unicode=";" horiz-adv-x="216" 
d="M158 354h-100v86h100v-86zM158 -1l-78 -108l-23 13l35 87l-34 9v86h100v-87z" />
    <glyph glyph-name="less" unicode="&#x3c;" horiz-adv-x="405" 
d="M344 78h-95l-216 206l216 206h95l-216 -206z" />
    <glyph glyph-name="equal" unicode="=" horiz-adv-x="502" 
d="M436 318h-370v76h370v-76zM436 160h-370v76h370v-76z" />
    <glyph glyph-name="greater" unicode="&#x3e;" horiz-adv-x="404" 
d="M371 284l-216 -206h-95l216 206l-216 206h95z" />
    <glyph glyph-name="question" unicode="?" horiz-adv-x="441" 
d="M226 200l-58.998 0.000976562c-2 26.667 -3 41.667 -3 45c0 20.667 3.66699 39.834 11 57.501s16.666 34.667 27.999 51s23.333 32.333 36 48s24.667 31.667 36 48s20.666 33.666 27.999 51.999s11 38.166 11 59.499c0 20 -3.5 37.667 -10.5 53
s-16.333 28.166 -28 38.499s-25.167 18.166 -40.5 23.499s-31.666 8 -48.999 8c-14.667 0 -29.167 -2.16699 -43.5 -6.5s-27.333 -9.83301 -39 -16.5s-21.834 -14 -30.501 -22s-14.667 -15.667 -18 -23l-25 67c12.667 19.333 33.334 35.333 62.001 48s61 19 97 19
c32 0 60.833 -5.5 86.5 -16.5s47.5 -25.5 65.5 -43.5s31.833 -38.167 41.5 -60.5s14.5 -44.5 14.5 -66.5c0 -23.333 -5.83301 -47.666 -17.5 -72.999s-25.834 -48.666 -42.501 -69.999l-51 -65c-17.333 -22 -31.833 -44 -43.5 -66s-17.167 -42.667 -16.5 -62v-27z
M244.002 0.000976562h-91v86h91v-86z" />
    <glyph glyph-name="at" unicode="@" horiz-adv-x="722" 
d="M545 379c-34 35.333 -74.6631 53.001 -121.996 53.001c-30.667 0 -61.167 -8.33301 -91.5 -25s-57.5 -38.167 -81.5 -64.5s-43.5 -56.333 -58.5 -90s-22.5 -67.5 -22.5 -101.5c0 -32 7.33301 -58.5 22 -79.5s39 -31.5 73 -31.5c14 0 29.333 2.83301 46 8.5
s33 13.667 49 24s31.167 22.5 45.5 36.5s26.166 29.667 35.499 47c0 -0.666992 -0.166992 -2.5 -0.5 -5.5s-0.666016 -6.16699 -0.999023 -9.5l-1 -10c-0.333008 -3.33301 -0.5 -5.33301 -0.5 -6c0 -21.333 4.33301 -40.5 13 -57.5s22.667 -25.5 42 -25.5
c10 0 21 1.83301 33 5.5s24 8.5 36 14.5s23.667 12.833 35 20.5s21 15.5 29 23.5c-16 -28.667 -35.667 -54.834 -59 -78.501s-49.333 -44 -78 -61s-59.167 -30.167 -91.5 -39.5s-65.5 -14 -99.5 -14c-38 0 -72.333 5.83301 -103 17.5s-56.834 28.5 -78.501 50.5
s-38.167 49 -49.5 81s-17 68 -17 108c0 53.333 10 103.333 30 150s47.333 87.167 82 121.5s74.667 61.5 120 81.5s93.666 30 144.999 30c38.667 0 73.5 -6 104.5 -18s57.167 -29 78.5 -51s37.666 -48.667 48.999 -80s17 -66.333 17 -105
c0 -17.333 -0.833008 -35.333 -2.5 -54s-5.16699 -36.5 -10.5 -53.5s-13.5 -32.5 -24.5 -46.5s-25.833 -25.333 -44.5 -34c-26 -11.333 -48 -17 -66 -17c-24.667 0 -37 17.667 -37 53c0 8.66699 1.66699 21 5 37s7.66602 34.167 12.999 54.5l17.5 66.5zM424.004 371.001
c31.333 0 49.334 -7.33105 54.001 -21.998c-4 -26 -12.833 -53.167 -26.5 -81.5s-29.5 -54.5 -47.5 -78.5s-36.833 -43.833 -56.5 -59.5s-37.834 -23.5 -54.501 -23.5c-14.667 0 -25.667 6 -33 18s-11 27.333 -11 46c0 26 5.66699 51.167 17 75.5s25.833 45.666 43.5 63.999
s36.667 33.166 57 44.499s39.5 17 57.5 17z" />
    <glyph glyph-name="A" unicode="A" 
d="M609 0h-100l-67 189h-268l-67 -189h-100l251 700h100zM412 275l-104 292l-104 -292h208z" />
    <glyph glyph-name="B" unicode="B" horiz-adv-x="597" 
d="M320 0l-239.998 -0.000976562v700h158c43.333 0 81.5 -2.33301 114.5 -7s60.5 -13.5 82.5 -26.5s38.667 -30.667 50 -53s17 -51.166 17 -86.499c0 -18 -0.5 -33.667 -1.5 -47s-3.5 -25.666 -7.5 -36.999s-9.83301 -22.5 -17.5 -33.5s-17.834 -23.167 -30.501 -36.5
c43.333 -16.667 73.666 -38.334 90.999 -65.001s26 -60 26 -100c0 -44.667 -7.16699 -80.667 -21.5 -108s-33 -48.333 -56 -63s-49 -24.5 -78 -29.5s-57.833 -7.5 -86.5 -7.5zM265.002 614.999l-89.9971 0.000976562v-206h118c16 0 30.667 1.16699 44 3.5
s25 7.16602 35 14.499s17.833 18.333 23.5 33s8.5 34.667 8.5 60c0 22 -3.83301 39.333 -11.5 52s-17.834 22.167 -30.501 28.5s-27.334 10.333 -44.001 12s-34.334 2.5 -53.001 2.5zM323.005 323l-148 -0.000976562v-237h98c30 0 56.667 1.16699 80 3.5
s43.166 7.5 59.499 15.5s28.833 19.333 37.5 34s13 34.667 13 60c0 23.333 -3.33301 42.833 -10 58.5s-16 28.334 -28 38.001s-26.667 16.667 -44 21s-36.666 6.5 -57.999 6.5z" />
    <glyph glyph-name="C" unicode="C" 
d="M390 -14c-51.333 0 -98.501 8.66504 -141.501 25.998s-80 42 -111 74s-55.167 70.333 -72.5 115s-26 94.334 -26 149.001c0 54 8.66699 103.333 26 148s41.5 83 72.5 115s67.833 56.833 110.5 74.5s89.667 26.5 141 26.5c71.333 0 136 -13.667 194 -41l-10 -88l-57 20
c-38 15.333 -80.333 23 -127 23c-39.333 0 -74.166 -7 -104.499 -21s-56 -33.333 -77 -58s-37 -54 -48 -88s-16.5 -71 -16.5 -111c0 -39.333 5.33301 -76 16 -110s26.5 -63.5 47.5 -88.5s47 -44.5 78 -58.5s66.5 -21 106.5 -21c10 0 19.667 0.333008 29 1s19 2 29 4l25 5
c5.33301 0.666992 14.333 3.33398 27 8.00098l23 7c3.33301 0.666992 12 3.66699 26 9l23 8l10 -88c-58 -26.667 -122.333 -40 -193 -40z" />
    <glyph glyph-name="D" unicode="D" horiz-adv-x="727" 
d="M339 0l-259.001 -0.000976562v700h259c50.667 0 97.334 -8 140.001 -24s79.5 -39.167 110.5 -69.5s55 -67.166 72 -110.499s25.5 -92 25.5 -146s-8.5 -102.667 -25.5 -146s-40.667 -80 -71 -110s-66.833 -53.167 -109.5 -69.5s-90 -24.5 -142 -24.5zM338.999 613.999
h-164v-528h164c38.667 0 73.167 6.16699 103.5 18.5s56 30 77 53s36.833 50.833 47.5 83.5s16 69 16 109s-5.33301 76.333 -16 109s-26.5 60.5 -47.5 83.5s-46.667 40.667 -77 53s-64.833 18.5 -103.5 18.5z" />
    <glyph glyph-name="E" unicode="E" horiz-adv-x="554" 
d="M516 0h-436v700h427v-86h-332v-205h264v-86h-264v-237h341v-86z" />
    <glyph glyph-name="F" unicode="F" horiz-adv-x="523" 
d="M507 614h-332v-205h256v-86h-256v-323h-95v700h427v-86z" />
    <glyph glyph-name="G" unicode="G" horiz-adv-x="672" 
d="M382 -14c-49.333 0 -94.998 8.82812 -136.998 26.4951s-78.333 42.5 -109 74.5s-54.5 70.333 -71.5 115s-25.5 94.334 -25.5 149.001s8.66699 104.334 26 149.001s41.5 82.834 72.5 114.501s68 56.167 111 73.5s90.167 26 141.5 26c78.667 0 148 -13.333 208 -40l-9 -83
c-70 24.667 -135.333 37 -196 37c-40.667 0 -76.667 -6.83301 -108 -20.5s-57.5 -32.667 -78.5 -57s-36.833 -53.666 -47.5 -87.999s-16 -71.833 -16 -112.5c0 -42 5.66699 -80.167 17 -114.5s28.166 -63.5 50.499 -87.5s50 -42.667 83 -56s71.5 -20 115.5 -20
c48 0 87 6.33301 117 19v174h-110v86h205v-312c-13.333 -7.33301 -29.833 -14.166 -49.5 -20.499s-40.334 -12 -62.001 -17s-43.667 -8.83301 -66 -11.5s-42.833 -4 -61.5 -4z" />
    <glyph glyph-name="H" unicode="H" horiz-adv-x="746" 
d="M666 0h-95v321h-396v-321h-95v700h95v-289h396v289h95v-700z" />
    <glyph glyph-name="I" unicode="I" horiz-adv-x="255" 
d="M175 0h-95v700h95v-700z" />
    <glyph glyph-name="J" unicode="J" horiz-adv-x="255" 
d="M9 -172h-16l-10 56h4c18 0 33 2 45 6s21.5 10.5 28.5 19.5s12 20.667 15 35s4.5 31.833 4.5 52.5v703h95v-732c0 -93.333 -55.333 -140 -166 -140z" />
    <glyph glyph-name="K" unicode="K" horiz-adv-x="577" 
d="M573 0h-100l-259 371l259 329h100l-259 -329zM175 0h-95v700h95v-700z" />
    <glyph glyph-name="L" unicode="L" horiz-adv-x="501" 
d="M496 0h-416v700h95v-614h321v-86z" />
    <glyph glyph-name="M" unicode="M" horiz-adv-x="812" 
d="M764 0h-100l-66 529l-190 -363l-194 363l-66 -529h-100l94 700h81l184 -347l182 347h82z" />
    <glyph glyph-name="N" unicode="N" horiz-adv-x="704" 
d="M624 0h-81l-368 553v-553h-95v700h103l345 -524v524h96v-700z" />
    <glyph glyph-name="O" unicode="O" horiz-adv-x="768" 
d="M632 85c-64 -66 -146.666 -99.001 -247.999 -99.001c-50.667 0 -97.167 8.66699 -139.5 26s-78.666 41.833 -108.999 73.5s-54 69.834 -71 114.501s-25.5 94.667 -25.5 150s8.66699 105.333 26 150s41.166 82.834 71.499 114.501s66.666 56.167 108.999 73.5
s88.5 26 138.5 26s96.167 -8.66699 138.5 -26s78.833 -42 109.5 -74s54.5 -70.333 71.5 -115s25.5 -94.334 25.5 -149.001c0 -110 -32.333 -198.333 -97 -265zM562.001 549.999c-41.333 52 -100.667 78 -178 78c-38.667 0 -73 -7 -103 -21s-55.167 -33.333 -75.5 -58
s-35.833 -54 -46.5 -88s-16 -71 -16 -111s5.33301 -77 16 -111s26.167 -63.333 46.5 -88s45.5 -44 75.5 -58s64.333 -21 103 -21s73 7 103 21s55.333 33.5 76 58.5s36.167 54.333 46.5 88s15.5 70.5 15.5 110.5c0 81.333 -21 148 -63 200z" />
    <glyph glyph-name="P" unicode="P" horiz-adv-x="572" 
d="M180 245v-245h-100v700h224c32.667 0 63.667 -2.5 93 -7.5s55.166 -15.333 77.499 -31s40.166 -37.834 53.499 -66.501s20 -66.334 20 -113.001c0 -45.333 -6.83301 -83.166 -20.5 -113.499s-31.167 -54.666 -52.5 -72.999s-44.666 -31.333 -69.999 -39
s-49.666 -11.5 -72.999 -11.5h-152zM180 615l-0.000976562 -285.002h134c48.667 0 83.334 12.833 104.001 38.5s31 62.167 31 109.5c0 24.667 -2.66699 45.834 -8 63.501s-14.333 31.834 -27 42.501s-29.5 18.5 -50.5 23.5s-46.833 7.5 -77.5 7.5h-106z" />
    <glyph glyph-name="Q" unicode="Q" horiz-adv-x="768" 
d="M715 62l-49.999 -59.001l-65 54c-66.667 -47.333 -138.667 -71 -216 -71c-50.667 0 -97.167 8.66699 -139.5 26s-78.666 41.833 -108.999 73.5s-54 69.834 -71 114.501s-25.5 94.667 -25.5 150s8.66699 105.333 26 150s41.166 82.834 71.499 114.501
s66.666 56.167 108.999 73.5s88.5 26 138.5 26s96.167 -8.66699 138.5 -26s78.833 -42 109.5 -74s54.5 -70.333 71.5 -115s25.5 -94.334 25.5 -149.001c0 -86 -24.667 -165.667 -74 -239zM384.001 627.999c-39.333 0 -73.832 -6.83203 -103.499 -20.499
s-54.834 -32.834 -75.501 -57.501s-36.167 -54 -46.5 -88s-15.5 -71.333 -15.5 -112c0 -40 5.16699 -77 15.5 -111s25.5 -63.333 45.5 -88s45 -44 75 -58s65 -21 105 -21c64 0 114.333 13.333 151 40l-103 84l50 61l105 -93c32 50 48 112 48 186
c0 40 -5.66699 76.833 -17 110.5s-27.833 63 -49.5 88s-48 44.5 -79 58.5s-66.167 21 -105.5 21z" />
    <glyph glyph-name="R" unicode="R" horiz-adv-x="603" 
d="M584 0l-101.999 -0.000976562l-155 273h-147v-273h-100v700h227c38.667 0 73.167 -3.66699 103.5 -11s55.666 -19.166 75.999 -35.499s35.833 -37.5 46.5 -63.5s16 -57.667 16 -95c0 -44 -11.167 -83.167 -33.5 -117.5s-53.833 -60.833 -94.5 -79.5zM306.001 622.999
h-126v-258h151c16 0 31.167 2.66699 45.5 8s27 13.333 38 24s19.667 24.167 26 40.5s9.5 35.5 9.5 57.5c0 40.667 -12 72.167 -36 94.5s-60 33.5 -108 33.5z" />
    <glyph glyph-name="S" unicode="S" horiz-adv-x="584" 
d="M280 -14c-96.667 0 -173.002 14.9961 -229.002 44.9961l13 111c62.667 -46.667 135.334 -70 218.001 -70c24 0 46.167 2.16699 66.5 6.5s38 11 53 20s26.667 20.333 35 34s12.5 29.5 12.5 47.5c0 18.667 -4.33301 34.834 -13 48.501s-20.834 25.834 -36.501 36.501
s-34.667 20.334 -57 29.001s-47.166 17.667 -74.499 27l-70 23c-56.667 18.667 -97.167 41.834 -121.5 69.501s-36.5 60.5 -36.5 98.5c0 20 4 41.833 12 65.5s21.5 45.667 40.5 66s44.667 37.166 77 50.499s73.166 20 122.499 20c20 0 40.667 -1.33301 62 -4
s41.833 -6.16699 61.5 -10.5s37.834 -9.5 54.501 -15.5s30.667 -12 42 -18l-10 -101c-84 42 -151 63 -201 63c-19.333 0 -38.5 -2 -57.5 -6s-35.833 -10.333 -50.5 -19s-26.5 -19.334 -35.5 -32.001s-13.5 -28 -13.5 -46c0 -29.333 12.5 -52.166 37.5 -68.499
s62.833 -32.5 113.5 -48.5c14 -4.66699 24.167 -7.66699 30.5 -9s12.5 -2.83301 18.5 -4.5s14.167 -4.33398 24.5 -8.00098s26.833 -10.5 49.5 -20.5l34 -18c8.66699 -4.66699 15.834 -8.66699 21.501 -12s10.167 -6.66602 13.5 -9.99902l25 -26
c15.333 -16 25.5 -33.333 30.5 -52s8.5 -41 10.5 -67c0 -20 -3 -41.167 -9 -63.5s-18.667 -43.166 -38 -62.499s-46.833 -35.5 -82.5 -48.5s-83.5 -19.833 -143.5 -20.5z" />
    <glyph glyph-name="T" unicode="T" horiz-adv-x="533" 
d="M518 614h-204v-614h-95v614h-204v86h503v-86z" />
    <glyph glyph-name="U" unicode="U" horiz-adv-x="724" 
d="M72 297l-0.00195312 403.002h95v-357c0 -34 2.33301 -67.167 7 -99.5s13.834 -61.333 27.501 -87s33.334 -46.167 59.001 -61.5s59.5 -23 101.5 -23s75.833 8 101.5 24s45.5 36.667 59.5 62s23.167 54.166 27.5 86.499s6.5 65.166 6.5 98.499v357h95v-403
c0 -98.667 -24.167 -175.167 -72.5 -229.5s-120.833 -81.5 -217.5 -81.5s-169.167 27.167 -217.5 81.5s-72.5 130.833 -72.5 229.5z" />
    <glyph glyph-name="V" unicode="V" horiz-adv-x="644" 
d="M640 700l-268 -700h-100l-268 700h100l219 -591l217 591h100z" />
    <glyph glyph-name="W" unicode="W" horiz-adv-x="971" 
d="M961 700l-205 -700h-105l-165 574l-171 -574h-105l-196 700h100l155 -592l175 578h86l177 -577l154 591h100z" />
    <glyph glyph-name="X" unicode="X" horiz-adv-x="599" 
d="M594 0h-100l-202 286l-183 -286h-100l235 349l-235 351h110l180 -273l194 273h100l-250 -339z" />
    <glyph glyph-name="Y" unicode="Y" horiz-adv-x="567" 
d="M569 700l-236 -377v-323h-99v323l-237 377h100l186 -291l186 291h100z" />
    <glyph glyph-name="Z" unicode="Z" horiz-adv-x="549" 
d="M542 700l-377 -614h332v-86h-488l376 614h-331v86h488z" />
    <glyph glyph-name="bracketleft" unicode="[" horiz-adv-x="327" 
d="M327 -135h-257v885h257v-68h-174v-749h174v-68z" />
    <glyph glyph-name="backslash" unicode="\" horiz-adv-x="525" 
d="M506 -85h-93l-378 785h93z" />
    <glyph glyph-name="bracketright" unicode="]" horiz-adv-x="327" 
d="M0 750h257v-885h-257v68h174v749h-174v68z" />
    <glyph glyph-name="asciicircum" unicode="^" horiz-adv-x="511" 
d="M461 437l-206 216l-206 -216v106l206 216l206 -216v-106z" />
    <glyph glyph-name="underscore" unicode="_" horiz-adv-x="566" 
d="M563 -122h-560v86h560v-86z" />
    <glyph glyph-name="grave" unicode="`" horiz-adv-x="303" 
d="M245 596l-187 64v72l187 -95v-41z" />
    <glyph glyph-name="a" unicode="a" horiz-adv-x="480" 
d="M472 62l-14.002 -72.001h-7c-20 0 -36.667 1.16699 -50 3.5s-24.666 6.33301 -33.999 12s-17.166 13.167 -23.499 22.5s-12.5 20.666 -18.5 33.999c-41.333 -48 -91.333 -72 -150 -72c-46 0 -82.667 13.167 -110 39.5s-41 60.5 -41 102.5c0 34 9.16699 62 27.5 84
s41.666 39.667 69.999 53s59.833 22.833 94.5 28.5s68.334 8.83398 101.001 9.50098c0 44 -8.5 73.833 -25.5 89.5s-44.167 23.5 -81.5 23.5c-42.667 0 -85.667 -14.667 -129 -44l-13 73c44 34 99.333 51 166 51c31.333 0 58 -4.16699 80 -12.5s39.833 -21.666 53.5 -39.999
s23.667 -42.5 30 -72.5s9.5 -66.667 9.5 -110v-100c0 -38.667 3.33301 -65.5 10 -80.5s22 -22.5 46 -22.5h9zM316.998 127.999v117c-72 -2.66699 -123.5 -12.167 -154.5 -28.5s-46.5 -42.833 -46.5 -79.5c0 -50 25.333 -75 76 -75c24 0 47.167 6 69.5 18s40.833 28 55.5 48z
" />
    <glyph glyph-name="b" unicode="b" horiz-adv-x="555" 
d="M301 -10c-12 0 -25 1.66699 -39 5s-28 8 -42 14s-27.167 13.5 -39.5 22.5s-22.5 19.167 -30.5 30.5l-10 -62h-80v750h90v-313c34.667 42 85.334 63 152.001 63c32.667 0 62.667 -6.83301 90 -20.5s50.666 -32.167 69.999 -55.5s34.333 -50.5 45 -81.5s16 -63.5 16 -97.5
c0 -35.333 -5.66699 -68.5 -17 -99.5s-27 -58 -47 -81s-43.5 -41.167 -70.5 -54.5s-56.167 -20 -87.5 -20zM291 420c-19.333 0 -37.833 -3.83203 -55.5 -11.499s-33.167 -19 -46.5 -34s-24 -33.333 -32 -55s-12 -46.5 -12 -74.5c0 -28.667 3.83301 -54 11.5 -76
s18.167 -40.333 31.5 -55s28.833 -25.667 46.5 -33s36.5 -11 56.5 -11c21.333 0 40.666 4.66699 57.999 14s32 22 44 38s21.333 34.667 28 56s10 43.666 10 66.999c0 24.667 -3.33301 47.667 -10 69s-16.167 39.833 -28.5 55.5s-27.166 28 -44.499 37s-36.333 13.5 -57 13.5
z" />
    <glyph glyph-name="c" unicode="c" horiz-adv-x="454" 
d="M277 -10c-39.333 0 -73.9971 6.5 -103.997 19.5s-55.5 31 -76.5 54s-36.833 50 -47.5 81s-16 64.833 -16 101.5c0 37.333 5.33301 71.5 16 102.5s26.167 57.833 46.5 80.5s45.666 40.167 75.999 52.5s65.166 18.5 104.499 18.5c65.333 0 115.666 -9.66699 150.999 -29
l-14 -81c-41.333 20 -83.666 30 -126.999 30c-54 0 -94.333 -15 -121 -45s-40 -73 -40 -129s13.333 -99.5 40 -130.5s67 -46.5 121 -46.5c44 0 86.667 10 128 30l12 -72c-36.667 -24.667 -86.334 -37 -149.001 -37z" />
    <glyph glyph-name="d" unicode="d" horiz-adv-x="555" 
d="M495 0l-80.001 -0.000976562l-10 62c-8 -11.333 -18.167 -21.333 -30.5 -30s-25.333 -16.167 -39 -22.5s-27.5 -11.166 -41.5 -14.499s-27 -5 -39 -5c-31.333 0 -60.666 6.66699 -87.999 20s-51 31.5 -71 54.5s-35.667 50 -47 81s-17 64.167 -17 99.5
c0 34 5.33301 66.5 16 97.5s25.834 58.167 45.501 81.5s43.167 41.833 70.5 55.5s57.666 20.5 90.999 20.5c66 0 116 -20.667 150 -62v312h90v-750zM261.999 419.999c-21.333 0 -40.5 -4.33496 -57.5 -13.002s-31.5 -20.667 -43.5 -36s-21.167 -33.666 -27.5 -54.999
s-9.5 -45 -9.5 -71c0 -24 3.16699 -46.667 9.5 -68s15.333 -39.833 27 -55.5s26 -28.167 43 -37.5s36.5 -14 58.5 -14c20 0 39.167 3.5 57.5 10.5s34.666 17.667 48.999 32s25.666 32.333 33.999 54s12.5 46.834 12.5 75.501c0 28 -4.33301 53 -13 75
s-20.167 40.667 -34.5 56s-30.666 27 -48.999 35s-37.166 12 -56.499 12z" />
    <glyph glyph-name="e" unicode="e" horiz-adv-x="512" 
d="M478 245l-355.001 -0.000976562c10.667 -116.667 72 -175 184 -175c50 0 97 9.66699 141 29l12 -71c-58 -25.333 -112.667 -38 -164 -38c-41.333 0 -78.5 6.66699 -111.5 20s-60.833 31.5 -83.5 54.5s-40 50.333 -52 82s-18 65.834 -18 102.501
c0 35.333 5.66699 68.333 17 99s27.333 57.167 48 79.5s45.834 40 75.501 53s62.834 19.5 99.501 19.5c31.333 0 60 -4.66699 86 -14s48.167 -23 66.5 -41s32.666 -39.833 42.999 -65.5s15.5 -54.5 15.5 -86.5c0 -18.667 -1.33301 -34.667 -4 -48zM268.999 419.999
c-72.667 0 -118.667 -37.667 -138 -113h258c0 36 -10 63.833 -30 83.5s-50 29.5 -90 29.5z" />
    <glyph glyph-name="f" unicode="f" horiz-adv-x="331" 
d="M317 420l-132 -0.000976562v-420h-90v420h-85l12 70h73v124c0 40.667 9.83301 73.5 29.5 98.5s47.834 37.5 84.501 37.5c42.667 0 76.667 -4.33301 102 -13l-14 -76c-19.333 6 -39.333 9 -60 9c-11.333 0 -20.333 -1.16699 -27 -3.5s-11.834 -7.66602 -15.501 -15.999
s-6.16699 -20.5 -7.5 -36.5s-2 -37.333 -2 -64v-60h132v-70z" />
    <glyph glyph-name="g" unicode="g" horiz-adv-x="498" 
d="M255 -250c-38.667 0 -72.334 4 -101.001 12s-52.5 18.833 -71.5 32.5s-33.167 29.5 -42.5 47.5s-14 36.667 -14 56c0 52 29 88.667 87 110c-33.333 16 -50 36.667 -50 62c0 11.333 4.5 23.833 13.5 37.5s23.833 25.5 44.5 35.5c-56.667 40.667 -85 94 -85 160
c0 28 4.5 54 13.5 78s22 44.833 39 62.5s38 31.5 63 41.5s53.167 15 84.5 15c44 0 85.667 -12 125 -36c34.667 18.667 74.334 28 119.001 28h8l-11 -60h-23c-20.667 0 -40 -2.33301 -58 -7c30 -36 45 -75 45 -117c0 -26 -4.66699 -50.667 -14 -74s-22.5 -44 -39.5 -62
s-37.667 -32.333 -62 -43s-51.833 -16 -82.5 -16c-26 0 -49.333 3 -70 9c-16 -9.33301 -24 -19.333 -24 -30c0 -6 1.83301 -11.167 5.5 -15.5s11 -8.16602 22 -11.499s26.333 -6.83301 46 -10.5l78.5 -14.5c22 -4 44.667 -9 68 -15s44.5 -14 63.5 -24
s34.833 -22.833 47.5 -38.5s19.667 -35.167 21 -58.5c0 -20.667 -5.66699 -40.334 -17 -59.001s-27.5 -35 -48.5 -49s-46.833 -25.167 -77.5 -33.5s-65 -12.5 -103 -12.5zM237 428c-36.667 0 -65.001 -11.167 -85.001 -33.5s-30 -51.833 -30 -88.5
c0 -38 10.833 -68.167 32.5 -90.5s49.834 -33.5 84.501 -33.5c36 0 64.333 12 85 36s31 54.333 31 91c0 38 -10.667 67.333 -32 88s-50 31 -86 31zM278.999 -26c-11.333 0 -40.999 4 -88.999 12c-22.667 -6.66699 -41.334 -18.334 -56.001 -35.001s-22 -33.667 -22 -51
c0 -23.333 13 -42.5 39 -57.5s62 -22.5 108 -22.5c48 0 85.167 7.83301 111.5 23.5s39.5 33.834 39.5 54.501c0 34.667 -43.667 60 -131 76z" />
    <glyph glyph-name="h" unicode="h" horiz-adv-x="542" 
d="M486 0h-90v262c0 58 -8.66699 98.833 -26 122.5s-47.666 35.5 -90.999 35.5c-58.667 0 -101.334 -21.333 -128.001 -64v-356h-91v750h91v-313c32.667 42 80 63 142 63c128.667 0 193 -79.333 193 -238v-262z" />
    <glyph glyph-name="i" unicode="i" horiz-adv-x="212" 
d="M151 600h-90v100h90v-100zM151 0h-90v490h90v-490z" />
    <glyph glyph-name="j" unicode="j" horiz-adv-x="212" 
d="M28 -237l-29.998 -4.99902l-10 69c14.667 1.33301 26.667 3.66602 36 6.99902s16.666 8.5 21.999 15.5s9.16602 16.667 11.499 29s3.5 28.5 3.5 48.5v563h90v-597c0 -21.333 -3.33301 -39.5 -10 -54.5s-15.5 -27.667 -26.5 -38s-24 -18.5 -39 -24.5
s-30.833 -10.333 -47.5 -13zM151.002 600.001h-90v100h90v-100z" />
    <glyph glyph-name="k" unicode="k" horiz-adv-x="448" 
d="M150 0h-90v750h90v-481l180 221h110l-202 -226l207 -264h-110l-185 249v-249z" />
    <glyph glyph-name="l" unicode="l" horiz-adv-x="236" 
d="M229 62l-12.999 -72h-29c-44 0 -76.167 11.167 -96.5 33.5s-30.5 50.5 -30.5 84.5v642h90v-590c0 -20.667 0.833008 -37.5 2.5 -50.5s5.16699 -23 10.5 -30s13.166 -11.667 23.499 -14s24.5 -3.5 42.5 -3.5z" />
    <glyph glyph-name="m" unicode="m" horiz-adv-x="877" 
d="M821 0h-90v288c0 46 -9 79.5 -27 100.5s-47.333 31.5 -88 31.5c-86.667 0 -130 -45.333 -130 -136v-284h-90v270c0 56 -9.83301 95 -29.5 117s-48.167 33 -85.5 33c-62.667 0 -106 -21.333 -130 -64v-356h-90v490h70l10 -52c26.667 24 51 40.333 73 49s46.667 13 74 13
c74.667 0 130 -32.667 166 -98c34 65.333 93.667 98 179 98c125.333 0 188 -70.333 188 -211v-289z" />
    <glyph glyph-name="n" unicode="n" horiz-adv-x="559" 
d="M503 0l-90 -0.000976562v270c0 52.667 -9.83301 90.834 -29.5 114.501s-52.5 35.5 -98.5 35.5c-65.333 0 -110 -21.333 -134 -64v-356h-90v490h70l10 -52c46.667 41.333 100.667 62 162 62c133.333 0 200 -76.667 200 -230v-270z" />
    <glyph glyph-name="o" unicode="o" horiz-adv-x="550" 
d="M452 62c-43.333 -48 -102.333 -72 -177 -72c-38 0 -72 6.5 -102 19.5s-55.5 30.833 -76.5 53.5s-37 49.667 -48 81s-16.5 65 -16.5 101c0 36.667 5.66699 70.5 17 101.5s27.5 57.833 48.5 80.5s46.5 40.5 76.5 53.5s63.667 19.5 101 19.5s71 -6.5 101 -19.5
s55.5 -31 76.5 -54s37.167 -50 48.5 -81s17 -64.5 17 -100.5c0 -73.333 -22 -134.333 -66 -183zM386 374c-26 30.667 -63 46 -111 46s-85.167 -15.167 -111.5 -45.5s-39.5 -73.5 -39.5 -129.5s13.167 -99.167 39.5 -129.5s63.5 -45.5 111.5 -45.5c48.667 0 86 15.667 112 47
s39 74 39 128c0 55.333 -13.333 98.333 -40 129z" />
    <glyph glyph-name="p" unicode="p" horiz-adv-x="557" 
d="M305 -10c-12 0 -25.1689 1.66992 -39.502 5.00293s-28.5 8 -42.5 14s-27.333 13.5 -40 22.5s-23.334 19.167 -32.001 30.5v-304h-90v732h70l10 -70c22.667 27.333 46.334 47.5 71.001 60.5s56 19.5 94 19.5c33.333 0 63.333 -6.83301 90 -20.5s49.5 -32.334 68.5 -56.001
s33.667 -50.834 44 -81.501s15.5 -63 15.5 -97c0 -36.667 -4.83301 -70.667 -14.5 -102s-23.667 -58.333 -42 -81s-41.166 -40.334 -68.499 -53.001s-58.666 -19 -93.999 -19zM294.998 420.003c-19.333 0 -38 -3.99609 -56 -11.9961s-33.833 -19.5 -47.5 -34.5
s-24.667 -33.333 -33 -55s-12.5 -46.167 -12.5 -73.5c0 -29.333 4 -54.833 12 -76.5s18.833 -39.834 32.5 -54.501s29.5 -25.667 47.5 -33s37 -11 57 -11c20.667 0 39.5 4.5 56.5 13.5s31.5 21.167 43.5 36.5s21.167 33.666 27.5 54.999s9.5 44.666 9.5 69.999
c0 26 -3.16699 49.667 -9.5 71s-15.5 39.666 -27.5 54.999s-26.5 27.333 -43.5 36s-35.833 13 -56.5 13z" />
    <glyph glyph-name="q" unicode="q" horiz-adv-x="557" 
d="M252 -10c-35.333 0 -66.668 6.33008 -94.001 18.9971s-50.333 30.334 -69 53.001s-32.667 49.667 -42 81s-14 65.333 -14 102c0 34.667 5.16699 67.334 15.5 98.001s25 57.667 44 81s41.833 41.833 68.5 55.5s56.667 20.5 90 20.5c38 0 69.333 -6.5 94 -19.5
s48.334 -33.167 71.001 -60.5l10 70h70v-732h-90v304c-8 -10.667 -18.333 -20.5 -31 -29.5s-26 -16.667 -40 -23s-28.167 -11.166 -42.5 -14.499s-27.833 -5 -40.5 -5zM261.998 419.997c-21.333 0 -40.332 -4.33691 -56.999 -13.0039s-31 -20.667 -43 -36
s-21.167 -33.666 -27.5 -54.999s-9.5 -45 -9.5 -71c0 -25.333 3.16699 -48.666 9.5 -69.999s15.5 -39.666 27.5 -54.999s26.333 -27.5 43 -36.5s35.667 -13.5 57 -13.5c20 0 39.167 3.83301 57.5 11.5s34.166 18.834 47.499 33.501s24 33 32 55s12 47 12 75
c0 27.333 -4.16699 51.833 -12.5 73.5s-19.333 40 -33 55s-29.5 26.5 -47.5 34.5s-36.667 12 -56 12z" />
    <glyph glyph-name="r" unicode="r" horiz-adv-x="321" 
d="M320 508l-20.001 -99.001h-31c-10 0 -20.667 -1.83301 -32 -5.5s-22.166 -8.5 -32.499 -14.5s-19.833 -12.667 -28.5 -20s-15 -15 -19 -23v-346h-96v490h74l11 -81c30.667 34.667 58.5 59.834 83.5 75.501s52.5 23.5 82.5 23.5h8z" />
    <glyph glyph-name="s" unicode="s" horiz-adv-x="414" 
d="M200 -10c-71.333 0 -127.336 14.334 -168.003 43.001l11 87c13.333 -12 33.833 -23.333 61.5 -34s58.167 -16 91.5 -16c65.333 0 98 20.333 98 61c0 36.667 -32.667 63.667 -98 81c-20 4.66699 -38.833 10.167 -56.5 16.5s-33.5 14.666 -47.5 24.999
s-25.5 23.5 -34.5 39.5s-14.167 36 -15.5 60c0 42 15 77 45 105s76.333 42 139 42c44.667 0 89 -10.667 133 -32l-11 -82c-34.667 28.667 -74.667 43 -120 43c-63.333 0 -95 -22 -95 -66c0 -10.667 1.66699 -19.667 5 -27s9.33301 -13.833 18 -19.5
s20.334 -11.167 35.001 -16.5s33.334 -11.333 56.001 -18c14 -4 29.167 -9.5 45.5 -16.5s31.5 -16.167 45.5 -27.5s25.667 -25.333 35 -42s14 -36.667 14 -60c0 -16 -2.66699 -32.667 -8 -50s-15 -33 -29 -47s-33.167 -25.667 -57.5 -35s-55.166 -14 -92.499 -14z" />
    <glyph glyph-name="t" unicode="t" horiz-adv-x="337" 
d="M318 62l-6.99902 -72.001h-81c-43.333 0 -75.5 11.333 -96.5 34s-31.5 50.334 -31.5 83.001v313h-84l8 70h76v121l90 9v-130h129v-70h-129v-258c0 -23.333 0.666992 -41.666 2 -54.999s5.16602 -23.333 11.499 -30s16.5 -10.834 30.5 -12.501s33.667 -2.5 59 -2.5h23z
" />
    <glyph glyph-name="u" unicode="u" horiz-adv-x="524" 
d="M463 0h-80l-10 54c-30.667 -42.667 -76 -64 -136 -64c-120.667 0 -181 71.667 -181 215v285h90v-260c0 -106.667 38 -160 114 -160c52 0 89.667 18.667 113 56v364h90v-490z" />
    <glyph glyph-name="v" unicode="v" horiz-adv-x="492" 
d="M483 490l-186 -490h-101l-187 490h100l137 -391l136 391h101z" />
    <glyph glyph-name="w" unicode="w" horiz-adv-x="725" 
d="M714 490l-148 -490h-101l-102 362l-103 -362h-101l-147 490h106l94 -391l104 376h93l105 -376l94 391h106z" />
    <glyph glyph-name="x" unicode="x" horiz-adv-x="474" 
d="M463 0h-101l-124 193l-126 -193h-101l171 244l-167 246h101l123 -194l113 194h105l-161 -238z" />
    <glyph glyph-name="y" unicode="y" horiz-adv-x="505" 
d="M498 490l-300 -732h-100l113 264l-204 468h100l153 -364l138 364h100z" />
    <glyph glyph-name="z" unicode="z" horiz-adv-x="471" 
d="M446 490l-261 -420h256v-70h-419l261 420h-251v70h414z" />
    <glyph glyph-name="braceleft" unicode="{" horiz-adv-x="299" 
d="M83 14c0 4.66699 0.334961 13.6641 1.00195 26.9971s1.5 27.666 2.5 42.999l3 44c1 14 1.5 24.333 1.5 31c0 36 -5.33301 65.5 -16 88.5s-29.334 42.833 -56.001 59.5c25.333 17.333 43.666 37.5 54.999 60.5s17 52.5 17 88.5c0 6.66699 -0.5 17 -1.5 31l-3 43.5
c-1 15 -1.83301 29.167 -2.5 42.5s-1 22.333 -1 27c0 47.333 16.167 83.5 48.5 108.5s87.5 38.833 165.5 41.5v-69c-35.333 -0.666992 -62.5 -4.33398 -81.5 -11.001s-32.833 -16.667 -41.5 -30s-13.834 -30.666 -15.501 -51.999s-2.5 -47.333 -2.5 -78
c0 -3.33301 0.166992 -9 0.5 -17s0.666016 -16.5 0.999023 -25.5s0.666016 -17.5 0.999023 -25.5s0.5 -14 0.5 -18c0 -12 -1.16699 -23.167 -3.5 -33.5s-6.5 -20 -12.5 -29s-14.333 -17.833 -25 -26.5s-24.667 -18 -42 -28c17.333 -9.33301 31.5 -18.166 42.5 -26.499
s19.5 -16.666 25.5 -24.999s10 -17.166 12 -26.499s3 -19.333 3 -30c0 -3.33301 -0.166992 -9.16602 -0.5 -17.499s-0.666016 -17.333 -0.999023 -27l-1 -28.5c-0.333008 -9.33301 -0.5 -16.333 -0.5 -21c0 -36 1.33301 -64.667 4 -86s8.83398 -38 18.501 -50
s23.834 -20.333 42.501 -25s44 -8 76 -10v-69c-76.667 2.66699 -131.5 16.167 -164.5 40.5s-49.5 60.5 -49.5 108.5z" />
    <glyph glyph-name="bar" unicode="|" horiz-adv-x="229" 
d="M159 -209h-89v959h89v-959z" />
    <glyph glyph-name="braceright" unicode="}" horiz-adv-x="299" 
d="M216 14c0 -48 -16.4932 -84.166 -49.4932 -108.499s-87.833 -37.833 -164.5 -40.5v69c36 0.666992 63.667 4.33398 83 11.001s33.166 17 41.499 31s13.166 31.667 14.499 53s2 46.666 2 75.999c0 4.66699 -0.166992 11.5 -0.5 20.5l-1 28
c-0.333008 9.66699 -0.666016 18.667 -0.999023 27s-0.5 14.5 -0.5 18.5c0 11.333 1.16699 21.666 3.5 30.999s6.5 18 12.5 26s14.333 16.167 25 24.5s24.667 17.166 42 26.499c-17.333 10 -31.333 19.333 -42 28s-19 17.5 -25 26.5s-10.167 18.667 -12.5 29
s-3.5 21.5 -3.5 33.5c0 4 0.166992 10 0.5 18s0.666016 16.5 0.999023 25.5s0.666016 17.5 0.999023 25.5s0.5 13.667 0.5 17c0 36 -1.33301 64.667 -4 86s-8.83398 38 -18.501 50s-23.834 20.333 -42.501 25s-44 8 -76 10v69c78 -2.66699 133.167 -16.5 165.5 -41.5
s48.5 -61.167 48.5 -108.5c0 -4.66699 -0.5 -13.667 -1.5 -27s-2 -27.5 -3 -42.5s-1.83301 -29.5 -2.5 -43.5s-1 -24.333 -1 -31c0 -36 5.66699 -65.5 17 -88.5s29.666 -43.167 54.999 -60.5c-26.667 -16.667 -45.334 -36.5 -56.001 -59.5s-16 -52.5 -16 -88.5
c0 -6.66699 0.333008 -17 1 -31s1.5 -28.667 2.5 -44s2 -29.666 3 -42.999s1.5 -22.333 1.5 -27z" />
    <glyph glyph-name="asciitilde" unicode="~" horiz-adv-x="455" 
d="M293 179c-8 0 -17.667 2.66699 -29 8l-39 17.5c-14.667 6.33301 -27.334 12.166 -38.001 17.499s-19.334 8 -26.001 8c-35.333 0 -59 -16.333 -71 -49l-36 9c4 14.667 9.66699 27.667 17 39s15.666 20.833 24.999 28.5s19.333 13.334 30 17.001s21 5.5 31 5.5
c8.66699 0 19 -2.5 31 -7.5l41 -17c15.333 -6.33301 28.333 -12 39 -17s20.334 -7.5 29.001 -7.5c28 0 51 17 69 51l34 -9c-7.33301 -28.667 -20.666 -51.5 -39.999 -68.5s-41.666 -25.5 -66.999 -25.5z" />
    <glyph glyph-name="Zcaron" horiz-adv-x="549" 
d="M542 700l-377 -614h332v-86h-488l376 614h-331v86h488zM430 908l-147 -99l-147 99v41l147 -76l147 76v-41z" />
    <glyph glyph-name="Zcaron" unicode="&#x17d;" horiz-adv-x="549" 
d="M542 700l-377 -614h332v-86h-488l376 614h-331v86h488zM430 908l-147 -99l-147 99v41l147 -76l147 76v-41z" />
    <glyph glyph-name="zcaron" horiz-adv-x="471" 
d="M446 490l-261 -420h256v-70h-419l261 420h-251v70h414zM384 699l-147 -99l-147 99v41l147 -76l147 76v-41z" />
    <glyph glyph-name="zcaron" unicode="&#x17e;" horiz-adv-x="471" 
d="M446 490l-261 -420h256v-70h-419l261 420h-251v70h414zM384 699l-147 -99l-147 99v41l147 -76l147 76v-41z" />
    <glyph glyph-name="uni00A0" unicode="&#xa0;" horiz-adv-x="225" 
 />
    <glyph glyph-name="exclamdown" unicode="&#xa1;" horiz-adv-x="224" 
d="M50 -250l30 550h64l30 -550h-124zM70 500h84v-86h-84v86z" />
    <glyph glyph-name="cent" unicode="&#xa2;" horiz-adv-x="477" 
d="M319 -31l-90.001 -0.00195312l17 120c-30.667 4 -59 13 -85 27s-48.333 32 -67 54s-33.334 47.833 -44.001 77.5s-16 62.5 -16 98.5c0 32.667 4.66699 63.834 14 93.501s23 56 41 79s40.167 42.167 66.5 57.5s56.5 25.333 90.5 30l-17 142h90l-16 -140
c28.667 -2 52.5 -5.5 71.5 -10.5s36.167 -12.167 51.5 -21.5l-8 -78c-20 10.667 -40.333 18.834 -61 24.501s-41.667 8.5 -63 8.5c-27.333 0 -51.166 -4.83301 -71.499 -14.5s-37.333 -22.834 -51 -39.501s-24 -36.167 -31 -58.5s-10.5 -46.166 -10.5 -71.499
c0 -54.667 14.667 -98.667 44 -132s70 -50 122 -50c40.667 0 81.334 10.667 122.001 32l8 -78c-11.333 -7.33301 -25 -14 -41 -20s-43 -10 -81 -12z" />
    <glyph glyph-name="sterling" unicode="&#xa3;" horiz-adv-x="500" 
d="M416 569c-9.33301 19.333 -21.4961 33.498 -36.4961 42.498s-31.5 13.5 -49.5 13.5c-20.667 0 -36.834 -2.66699 -48.501 -8s-20.5 -13.666 -26.5 -24.999s-9.66699 -25.5 -11 -42.5s-2 -37.5 -2 -61.5v-93h192l-15 -86h-183c-2 -25.333 -3.83301 -47 -5.5 -65
s-4.16699 -35.167 -7.5 -51.5s-7.83301 -32.666 -13.5 -48.999s-12.834 -35.5 -21.501 -57.5h261v-86h-415c16.667 23.333 31 46.333 43 69s22 46.167 30 70.5s14.667 50.333 20 78s9.66602 58.167 12.999 91.5h-95l14 86h87v115c0 26.667 2.16699 52.167 6.5 76.5
s12.833 46 25.5 65s30.5 34.167 53.5 45.5s52.833 17 89.5 17c46 0 81.667 -8.16699 107 -24.5s42.666 -36.833 51.999 -61.5z" />
    <glyph glyph-name="currency" unicode="&#xa4;" horiz-adv-x="626" 
d="M564 53l-28.999 -23.999l-79 103c-46.667 -25.333 -94.334 -38 -143.001 -38c-49.333 0 -97 12.667 -143 38l-79 -103l-28 24l77 102c-52.667 54.667 -79 119 -79 193c0 73.333 26.667 137.666 80 192.999l-78 102l28 24l78 -103c50.667 25.333 98.667 38 144 38
c47.333 0 95 -13 143 -39l80 104l28 -24l-78 -103c52.667 -54.667 79 -118.667 79 -192c0 -72 -26.667 -136.667 -80 -194zM432.001 486.001c-28 36 -67.667 54.002 -119 54.002c-26 0 -49 -4.83301 -69 -14.5s-36.833 -23 -50.5 -40s-24.167 -37.167 -31.5 -60.5
s-11 -49 -11 -77s3.66699 -53.833 11 -77.5s17.833 -44 31.5 -61s30.5 -30.167 50.5 -39.5s43 -14 69 -14s49 4.83301 69 14.5s36.833 23.167 50.5 40.5s24.167 37.666 31.5 60.999s11 48.666 11 75.999c0 56.667 -14.333 102.667 -43 138z" />
    <glyph glyph-name="yen" unicode="&#xa5;" horiz-adv-x="674" 
d="M646 700l-259 -384h177l-21 -54h-157v-62h178l-21 -54h-157v-146h-96v146h-178l21 54h157v62h-178l21 54h156l-259 384h93l215 -307l215 307h93z" />
    <glyph glyph-name="brokenbar" unicode="&#xa6;" horiz-adv-x="232" 
d="M160 308h-88v442h88v-442zM160 -210h-88v373h88v-373z" />
    <glyph glyph-name="section" unicode="&#xa7;" horiz-adv-x="456" 
d="M315 188c14 -10.667 24.8301 -20.3301 32.4971 -28.9971s13.5 -17.5 17.5 -26.5s6.5 -18.5 7.5 -28.5s1.5 -21.667 1.5 -35c0 -20 -3.33301 -39.333 -10 -58s-16.834 -35 -30.501 -49s-31.167 -25.167 -52.5 -33.5s-46.333 -12.5 -75 -12.5s-56.334 3.66699 -83.001 11
s-46.667 16.666 -60 27.999l13 63c45.333 -27.333 89 -41 131 -41c32 0 57.167 6.83301 75.5 20.5s27.5 34.5 27.5 62.5c0 23.333 -6.66699 41.5 -20 54.5s-30.166 23.5 -50.499 31.5s-42.333 15.5 -66 22.5s-45.667 16.667 -66 29s-37.166 28.666 -50.499 48.999
s-20 48.166 -20 83.499c0 77.333 36.333 127 109 149c-26 18.667 -43.167 36.5 -51.5 53.5s-12.5 35.167 -12.5 54.5c0 23.333 3.16699 45 9.5 65s16.333 37.167 30 51.5s30.834 25.666 51.501 33.999s45.334 12.5 74.001 12.5c57.333 0 106.333 -13.333 147 -40l-13 -63
c-45.333 28.667 -88.666 43 -129.999 43c-30 0 -53.667 -8.33301 -71 -25s-26 -37 -26 -61c0 -20.667 6.5 -37.167 19.5 -49.5s29.333 -22.833 49 -31.5s41 -17.167 64 -25.5s44.333 -19.166 64 -32.499s36 -30.5 49 -51.5s19.5 -48.5 19.5 -82.5
c0 -66 -34.667 -113.667 -104 -143zM203.997 438.004c-9.33301 -0.666992 -19.833 -2.83203 -31.5 -6.49902s-22.5 -9.33398 -32.5 -17.001s-18.333 -17.5 -25 -29.5s-10 -26.333 -10 -43c0 -54 54 -95 162 -123c24 6.66699 43 19.667 57 39s21 41.333 21 66
c0 54 -47 92 -141 114z" />
    <glyph glyph-name="dieresis" unicode="&#xa8;" horiz-adv-x="422" 
d="M335 600h-70v100h70v-100zM157 600h-70v100h70v-100z" />
    <glyph glyph-name="copyright" unicode="&#xa9;" horiz-adv-x="720" 
d="M49 365c0 49.333 7.66406 94.166 22.9971 134.499s36.833 74.833 64.5 103.5s60.5 50.834 98.5 66.501s79.667 23.5 125 23.5s87 -7.83301 125 -23.5s70.667 -38 98 -67s48.666 -63.667 63.999 -104s23 -84.833 23 -133.5s-7.66699 -93 -23 -133
s-36.666 -74.5 -63.999 -103.5s-60 -51.5 -98 -67.5s-79.667 -24 -125 -24s-87.166 8 -125.499 24s-71.166 38.333 -98.499 67s-48.666 63.167 -63.999 103.5s-23 84.833 -23 133.5zM359.997 648c-42 0 -79 -6.83301 -111 -20.5s-59 -33 -81 -58s-38.667 -54.833 -50 -89.5
s-17 -73 -17 -115s5.5 -80.333 16.5 -115s27.5 -64.5 49.5 -89.5s49.167 -44.333 81.5 -58s69.5 -20.5 111.5 -20.5s79 7 111 21s59 33.5 81 58.5s38.5 54.833 49.5 89.5s16.5 72.667 16.5 114s-5.66699 79.333 -17 114s-27.833 64.5 -49.5 89.5s-48.5 44.5 -80.5 58.5
s-69 21 -111 21zM368.997 197c-23.333 0 -44.667 4.00195 -64 12.002s-36 19.167 -50 33.5s-24.833 31.666 -32.5 51.999s-11.5 43.166 -11.5 68.499s3.83301 48.333 11.5 69s18.5 38.167 32.5 52.5s30.667 25.5 50 33.5s40.666 12 63.999 12c32 0 62 -6.33301 90 -19
l-7 -60c-30 12.667 -57.667 19 -83 19c-30 0 -52.667 -9.83301 -68 -29.5s-23 -45.5 -23 -77.5s7.66699 -57.833 23 -77.5s38 -29.5 68 -29.5c24.667 0 52.334 6.66699 83.001 20l7 -59c-25.333 -13.333 -55.333 -20 -90 -20z" />
    <glyph glyph-name="ordfeminine" unicode="&#xaa;" horiz-adv-x="349" 
d="M313 495l-6.99609 -61.001h-27c-32 0 -54.333 10.333 -67 31c-20.667 -20.667 -51.334 -31 -92.001 -31c-24.667 0 -45.334 7.66699 -62.001 23s-25 36 -25 62c0 19.333 5.83301 35.333 17.5 48s26.167 22.834 43.5 30.501s35.666 13.167 54.999 16.5
s36.666 5.33301 51.999 6c-1.33301 28 -19 42 -53 42c-21.333 0 -49 -6.66699 -83 -20l-6 60c36 15.333 72.333 23 109 23c72.667 0 109 -36 109 -108v-80c0 -20 1.5 -32 4.5 -36s10.167 -6 21.5 -6h10zM202.004 506.999l-0.000976562 63
c-23.333 -0.666992 -44.166 -5.16699 -62.499 -13.5s-27.5 -19.833 -27.5 -34.5c0 -21.333 13.333 -32 40 -32c18 0 34.667 5.66699 50 17z" />
    <glyph glyph-name="guillemotleft" unicode="&#xab;" horiz-adv-x="563" 
d="M523 78h-101l-147 206l147 206h101l-148 -206zM262 78h-100l-147 206l147 206h100l-147 -206z" />
    <glyph glyph-name="logicalnot" unicode="&#xac;" horiz-adv-x="596" 
d="M526 151h-55v195h-405v60h460v-255z" />
    <glyph glyph-name="uni00AD" unicode="&#xad;" horiz-adv-x="424" 
d="M367 230h-310v94h310v-94z" />
    <glyph glyph-name="registered" unicode="&#xae;" horiz-adv-x="720" 
d="M49 365c0 49.333 7.66406 94.166 22.9971 134.499s36.833 74.833 64.5 103.5s60.5 50.834 98.5 66.501s79.667 23.5 125 23.5s87 -7.83301 125 -23.5s70.667 -38 98 -67s48.666 -63.667 63.999 -104s23 -84.833 23 -133.5s-7.66699 -93 -23 -133
s-36.666 -74.5 -63.999 -103.5s-60 -51.5 -98 -67.5s-79.667 -24 -125 -24s-87.166 8 -125.499 24s-71.166 38.333 -98.499 67s-48.666 63.167 -63.999 103.5s-23 84.833 -23 133.5zM359.997 649c-42 0 -79.167 -7 -111.5 -21s-59.5 -33.5 -81.5 -58.5s-38.667 -55 -50 -90
s-17 -73.167 -17 -114.5s5.5 -79.5 16.5 -114.5s27.5 -65.167 49.5 -90.5s49.167 -44.833 81.5 -58.5s69.833 -20.5 112.5 -20.5c42 0 79.167 6.83301 111.5 20.5s59.333 33.167 81 58.5s38.167 55.5 49.5 90.5s17 73.167 17 114.5s-5.66699 79.5 -17 114.5s-28 65 -50 90
s-49 44.5 -81 58.5s-69 21 -111 21zM488.997 210h-63l-65 117h-55v-117h-62v321h118c36 0 63.333 -7.5 82 -22.5s28 -40.833 28 -77.5c0 -34 -18 -63 -54 -87zM347.997 482h-42v-99h40c40.667 0 61 16.667 61 50c0 16 -4.33301 28.167 -13 36.5s-24 12.5 -46 12.5z" />
    <glyph glyph-name="degree" unicode="&#xb0;" horiz-adv-x="333" 
d="M263 520c-24 -25.333 -56.332 -38 -96.999 -38c-42 0 -74.5 12.833 -97.5 38.5s-34.5 58.167 -34.5 97.5c0 20 3 38.333 9 55s14.833 31 26.5 43s25.667 21.5 42 28.5s34.5 10.5 54.5 10.5s38.333 -3.5 55 -10.5s30.667 -16.667 42 -29s20.166 -26.833 26.499 -43.5
s9.5 -34.667 9.5 -54c0 -39.333 -12 -72 -36 -98zM166.001 729c-14 0 -26.3301 -2.99707 -36.9971 -8.99707s-19.834 -14 -27.501 -24s-13.5 -21.833 -17.5 -35.5s-6 -27.834 -6 -42.501c0 -32 8.16699 -58.333 24.5 -79s39.166 -31 68.499 -31c14 0 26 3.16699 36 9.5
s18.5 14.666 25.5 24.999s12.167 21.5 15.5 33.5s5 26 5 42c0 14.667 -1.83301 28.667 -5.5 42s-9.16699 25.166 -16.5 35.499s-16.333 18.5 -27 24.5s-23.334 9 -38.001 9z" />
    <glyph glyph-name="plusminus" unicode="&#xb1;" horiz-adv-x="498" 
d="M434 327h-153v-144h-64v144h-153v67h153v138h64v-138h153v-67zM434 42h-370v67h370v-67z" />
    <glyph glyph-name="uni00B2" unicode="&#xb2;" horiz-adv-x="304" 
d="M273 320l-247.999 -0.00292969c38 51.333 68 93.166 90 125.499s38.5 58.5 49.5 78.5s17.833 35 20.5 45s4 18 4 24c0 16.667 -5 29.667 -15 39s-24 14 -42 14c-34 0 -65 -19.667 -93 -59l-9 65c7.33301 12.667 21.166 24.834 41.499 36.501s45.5 17.5 75.5 17.5
c20 0 37 -2.66699 51 -8s25.5 -12.666 34.5 -21.999s15.667 -20.166 20 -32.499s6.5 -25.5 6.5 -39.5c0 -45.333 -35.333 -116.666 -106 -213.999h120v-70z" />
    <glyph glyph-name="uni00B3" unicode="&#xb3;" horiz-adv-x="310" 
d="M128 312c-11.333 0 -22.8291 1.00195 -34.4961 3.00195s-22.5 4.5 -32.5 7.5s-18.833 6.16699 -26.5 9.5s-12.834 6.66602 -15.501 9.99902l18 66c21.333 -17.333 50.666 -26 87.999 -26c52 0 78 17.333 78 52c0 20 -5.16699 35.667 -15.5 47s-29.833 17 -58.5 17h-52
l6 55h27c51.333 0 77 16 77 48c0 29.333 -20 44 -60 44c-32.667 0 -56.334 -5.66699 -71.001 -17l-11 53c17.333 16.667 47.666 25 90.999 25c24 0 44 -3 60 -9s28.833 -13.667 38.5 -23s16.667 -20 21 -32s6.5 -24.333 6.5 -37c0 -35.333 -13 -60.333 -39 -75
c36 -21.333 54 -52.333 54 -93c0 -20 -4 -37.667 -12 -53s-18.833 -28.333 -32.5 -39s-29.5 -18.834 -47.5 -24.501s-37 -8.5 -57 -8.5z" />
    <glyph glyph-name="acute" unicode="&#xb4;" horiz-adv-x="303" 
d="M245 660l-187 -64v41l187 95v-72z" />
    <glyph glyph-name="uni00B5" unicode="&#xb5;" horiz-adv-x="591" 
d="M556 62l-16 -72h-26c-52.667 0 -88.334 24.333 -107.001 73c-22 -25.333 -42.5 -44 -61.5 -56s-43.167 -18 -72.5 -18c-21.333 0 -39.833 2.5 -55.5 7.5s-34.5 15.167 -56.5 30.5v-269h-88v732h89v-258c0 -56 8.83301 -97.167 26.5 -123.5s49.5 -39.5 95.5 -39.5
c25.333 0 46.333 4.33301 63 13s34.334 23.667 53.001 45v363h87v-320c0 -38 3.16699 -65.5 9.5 -82.5s18.833 -25.5 37.5 -25.5h22z" />
    <glyph glyph-name="paragraph" unicode="&#xb6;" horiz-adv-x="622" 
d="M580 633h-75v-633h-48v633h-101v-633h-41v243c-46.667 2.66699 -87.5 10.667 -122.5 24s-64.333 30.5 -88 51.5s-41.5 44.833 -53.5 71.5s-18 54.667 -18 84c0 30 6.33301 58.667 19 86s31.167 51.333 55.5 72s54.5 37.167 90.5 49.5s77 18.5 123 18.5h259v-67z" />
    <glyph glyph-name="periodcentered" unicode="&#xb7;" horiz-adv-x="238" 
d="M181 213h-124v130h124v-130z" />
    <glyph glyph-name="cedilla" unicode="&#xb8;" horiz-adv-x="303" 
d="M278 -54l-88 -133l-46 -5l68 132z" />
    <glyph glyph-name="uni00B9" unicode="&#xb9;" horiz-adv-x="216" 
d="M155 320l-75 0.000976562v276c-21.333 -9.33301 -38.333 -15 -51 -17l-6 60c6 0.666992 13 3.16699 21 7.5s15.5 9.16602 22.5 14.499s13.5 11.333 19.5 18s10 13 12 19h57v-378z" />
    <glyph glyph-name="ordmasculine" unicode="&#xba;" horiz-adv-x="370" 
d="M295 476c-27.333 -28 -64 -42 -110 -42c-23.333 0 -44.333 3.83301 -63 11.5s-34.5 18 -47.5 31s-23.167 28.333 -30.5 46s-11 36.834 -11 57.501c0 20 3.5 38.833 10.5 56.5s17 33 30 46s29 23.333 48 31s40.167 11.5 63.5 11.5s44.333 -3.83301 63 -11.5
s34.667 -18 48 -31s23.5 -28.333 30.5 -46s10.5 -36.5 10.5 -56.5c0 -40.667 -14 -75.334 -42 -104.001zM240 642c-13.333 16 -31.666 23.999 -54.999 23.999s-41.666 -8.16699 -54.999 -24.5s-20 -36.833 -20 -61.5c0 -25.333 6.66699 -46 20 -62s31.666 -24 54.999 -24
s41.666 8 54.999 24s20 36.667 20 62c0 24.667 -6.66699 45.334 -20 62.001z" />
    <glyph glyph-name="guillemotright" unicode="&#xbb;" horiz-adv-x="563" 
d="M548 284l-147 -206h-100l147 206l-147 206h100zM289 284l-147 -206h-101l148 206l-148 206h101z" />
    <glyph glyph-name="onequarter" unicode="&#xbc;" horiz-adv-x="717" 
d="M171 320l-75 0.000976562v276c-21.333 -9.33301 -38.333 -15 -51 -17l-6 60c6 0.666992 13 3.16699 21 7.5s15.5 9.16602 22.5 14.499s13.5 11.333 19.5 18s10 13 12 19h57v-378zM539 700.001l-378 -785h-100l378 785h100zM683 104.001h-49v-103h-74v103h-175l187 275h62
v-218h49v-57zM560 161.001v110l-74 -110h74z" />
    <glyph glyph-name="onehalf" unicode="&#xbd;" horiz-adv-x="729" 
d="M168 320l-75 0.000976562v276c-21.333 -9.33301 -38.333 -15 -51 -17l-6 60c6 0.666992 13 3.16699 21 7.5s15.5 9.16602 22.5 14.499s13.5 11.333 19.5 18s10 13 12 19h57v-378zM536 700.001l-378 -785h-100l378 785h100zM694 0.000976562l-247.999 -0.00292969
c38 51.333 68 93.166 90 125.499s38.5 58.5 49.5 78.5s17.833 35 20.5 45s4 18 4 24c0 16.667 -5 29.667 -15 39s-24 14 -42 14c-34 0 -65 -19.667 -93 -59l-9 65c7.33301 12.667 21.166 24.834 41.499 36.501s45.5 17.5 75.5 17.5c20 0 37 -2.66699 51 -8
s25.5 -12.666 34.5 -21.999s15.667 -20.166 20 -32.499s6.5 -25.5 6.5 -39.5c0 -45.333 -35.333 -116.666 -106 -213.999h120v-70z" />
    <glyph glyph-name="threequarters" unicode="&#xbe;" horiz-adv-x="885" 
d="M141 312c-11.333 0 -22.8291 1.00195 -34.4961 3.00195s-22.5 4.5 -32.5 7.5s-18.833 6.16699 -26.5 9.5s-12.834 6.66602 -15.501 9.99902l18 66c21.333 -17.333 50.666 -26 87.999 -26c52 0 78 17.333 78 52c0 20 -5.16699 35.667 -15.5 47s-29.833 17 -58.5 17h-52
l6 55h27c51.333 0 77 16 77 48c0 29.333 -20 44 -60 44c-32.667 0 -56.334 -5.66699 -71.001 -17l-11 53c17.333 16.667 47.666 25 90.999 25c24 0 44 -3 60 -9s28.833 -13.667 38.5 -23s16.667 -20 21 -32s6.5 -24.333 6.5 -37c0 -35.333 -13 -60.333 -39 -75
c36 -21.333 54 -52.333 54 -93c0 -20 -4 -37.667 -12 -53s-18.833 -28.333 -32.5 -39s-29.5 -18.834 -47.5 -24.501s-37 -8.5 -57 -8.5zM709.004 700.002l-378 -785h-100l378 785h100zM851.004 104.002h-49v-103h-74v103h-175l187 275h62v-218h49v-57zM728.004 161.002v110
l-74 -110h74z" />
    <glyph glyph-name="questiondown" unicode="&#xbf;" horiz-adv-x="449" 
d="M233 300l58.999 0.000976562c2 -27.333 3 -42.333 3 -45c0 -20.667 -3.66699 -39.834 -11 -57.501s-16.666 -34.667 -27.999 -51s-23.333 -32.333 -36 -48s-24.667 -31.667 -36 -48s-20.666 -33.666 -27.999 -51.999s-11 -38.166 -11 -59.499c0 -20 3.5 -37.667 10.5 -53
s16.333 -28.166 28 -38.499s25.167 -18.166 40.5 -23.499s31.666 -8 48.999 -8c14.667 0 29 2.16699 43 6.5s27 9.83301 39 16.5s22.333 14 31 22s14.667 15.667 18 23l25 -67c-12.667 -19.333 -33.334 -35.333 -62.001 -48s-61 -19 -97 -19
c-31.333 0 -59.833 5.5 -85.5 16.5s-47.5 25.167 -65.5 42.5s-32 37.166 -42 59.499s-15 45.166 -15 68.499s5.83301 47.666 17.5 72.999s25.834 48.666 42.501 69.999l50 65c17.333 22 32 43.833 44 65.5s17.667 42.5 17 62.5v27zM214.999 500.001h91v-86h-91v86z" />
    <glyph glyph-name="Agrave" unicode="&#xc0;" 
d="M609 0h-100l-67 189h-268l-67 -189h-100l251 700h100zM412 275l-104 292l-104 -292h208zM402 805l-187 64v72l187 -95v-41z" />
    <glyph glyph-name="Aacute" unicode="&#xc1;" 
d="M609 0h-100l-67 189h-268l-67 -189h-100l251 700h100zM412 275l-104 292l-104 -292h208zM402 869l-187 -64v41l187 95v-72z" />
    <glyph glyph-name="Acircumflex" unicode="&#xc2;" 
d="M609 0h-100l-67 189h-268l-67 -189h-100l251 700h100zM412 275l-104 292l-104 -292h208zM456 812l-147 82l-147 -82v36l147 106l147 -106v-36z" />
    <glyph glyph-name="Atilde" unicode="&#xc3;" 
d="M609 0h-100l-67 189h-268l-67 -189h-100l251 700h100zM412 275l-104 292l-104 -292h208zM375 808c-8 0 -18.0029 2.66602 -30.0029 7.99902l-38.5 17.5l-36.5 17.5c-10.667 5.33301 -19.667 8 -27 8c-35.333 0 -59 -16.333 -71 -49l-36 9c4 14.667 9.33301 27.667 16 39
s15 20.833 25 28.5s20.333 13.334 31 17.001s21 5.5 31 5.5c8.66699 0 19 -2.5 31 -7.5l41 -17l40.5 -17c11.667 -5 20.834 -7.5 27.501 -7.5c28 0 51 17 69 51l34 -9c-7.33301 -28.667 -20.666 -51.5 -39.999 -68.5s-41.666 -25.5 -66.999 -25.5z" />
    <glyph glyph-name="Adieresis" unicode="&#xc4;" 
d="M609 0h-100l-67 189h-268l-67 -189h-100l251 700h100zM412 275l-104 292l-104 -292h208zM433 809h-70v100h70v-100zM255 809h-70v100h70v-100z" />
    <glyph glyph-name="Aring" unicode="&#xc5;" 
d="M609 0h-100l-67 189h-268l-67 -189h-100l251 700h100zM412 275l-104 292l-104 -292h208zM309 785c-32.667 0 -58.167 8.66797 -76.5 26.001s-27.5 38.333 -27.5 63c0 26 9.66699 47.5 29 64.5s46.333 25.5 81 25.5c16 0 30.167 -2.5 42.5 -7.5s22.5 -11.833 30.5 -20.5
s14 -18.334 18 -29.001s6 -21.667 6 -33c0 -22.667 -8 -43.167 -24 -61.5s-40 -27.5 -72 -27.5h-7zM249 874.001c0 -18 6.00195 -32.5 18.002 -43.5s26 -16.5 42 -16.5s30 5.5 42 16.5s18 25.5 18 43.5c0 17.333 -5.83301 31.5 -17.5 42.5s-25.834 16.5 -42.501 16.5
s-30.834 -5.5 -42.501 -16.5s-17.5 -25.167 -17.5 -42.5z" />
    <glyph glyph-name="AE" unicode="&#xc6;" horiz-adv-x="865" 
d="M828 0h-436v180h-214l-92 -180h-93l342 700h483v-87h-312v-204h241v-86h-241v-237h322v-86zM392 272v339l-171 -339h171z" />
    <glyph glyph-name="Ccedilla" unicode="&#xc7;" 
d="M390 -14c-51.333 0 -98.501 8.66504 -141.501 25.998s-80 42 -111 74s-55.167 70.333 -72.5 115s-26 94.334 -26 149.001c0 54 8.66699 103.333 26 148s41.5 83 72.5 115s67.833 56.833 110.5 74.5s89.667 26.5 141 26.5c71.333 0 136 -13.667 194 -41l-10 -88l-57 20
c-38 15.333 -80.333 23 -127 23c-39.333 0 -74.166 -7 -104.499 -21s-56 -33.333 -77 -58s-37 -54 -48 -88s-16.5 -71 -16.5 -111c0 -39.333 5.33301 -76 16 -110s26.5 -63.5 47.5 -88.5s47 -44.5 78 -58.5s66.5 -21 106.5 -21c10 0 19.667 0.333008 29 1s19 2 29 4l25 5
c5.33301 0.666992 14.333 3.33398 27 8.00098l23 7c3.33301 0.666992 12 3.66699 26 9l23 8l10 -88c-58 -26.667 -122.333 -40 -193 -40zM373.999 -54.002l-88 -133l-46 -5l68 132z" />
    <glyph glyph-name="Egrave" unicode="&#xc8;" horiz-adv-x="554" 
d="M516 0h-436v700h427v-86h-332v-205h264v-86h-264v-237h341v-86zM371 805l-187 64v72l187 -95v-41z" />
    <glyph glyph-name="Eacute" unicode="&#xc9;" horiz-adv-x="554" 
d="M516 0h-436v700h427v-86h-332v-205h264v-86h-264v-237h341v-86zM370 869l-187 -64v41l187 95v-72z" />
    <glyph glyph-name="Ecircumflex" unicode="&#xca;" horiz-adv-x="554" 
d="M516 0h-436v700h427v-86h-332v-205h264v-86h-264v-237h341v-86zM423 812l-147 82l-147 -82v36l147 106l147 -106v-36z" />
    <glyph glyph-name="Edieresis" unicode="&#xcb;" horiz-adv-x="554" 
d="M516 0h-436v700h427v-86h-332v-205h264v-86h-264v-237h341v-86zM400 809h-70v100h70v-100zM222 809h-70v100h70v-100z" />
    <glyph glyph-name="Igrave" unicode="&#xcc;" horiz-adv-x="255" 
d="M175 0h-95v700h95v-700zM222 805l-187 64v72l187 -95v-41z" />
    <glyph glyph-name="Iacute" unicode="&#xcd;" horiz-adv-x="255" 
d="M175 0h-95v700h95v-700zM223 869l-187 -64v41l187 95v-72z" />
    <glyph glyph-name="Icircumflex" unicode="&#xce;" horiz-adv-x="255" 
d="M175 0h-95v700h95v-700zM278 812l-147 82l-147 -82v36l147 106l147 -106v-36z" />
    <glyph glyph-name="Idieresis" unicode="&#xcf;" horiz-adv-x="255" 
d="M175 0h-95v700h95v-700zM253 809h-70v100h70v-100zM75 809h-70v100h70v-100z" />
    <glyph glyph-name="Eth" unicode="&#xd0;" horiz-adv-x="727" 
d="M342 0l-256.001 -0.000976562v313h-97v64h97v323h256c50.667 0 97.167 -8.16699 139.5 -24.5s78.833 -39.5 109.5 -69.5s54.334 -66.667 71.001 -110s25 -92 25 -146s-8.33301 -102.5 -25 -145.5s-40 -79.667 -70 -110s-66.167 -53.666 -108.5 -69.999
s-89.5 -24.5 -141.5 -24.5zM341.999 613.999l-166.003 -0.00195312v-237h133v-64h-133v-226h166c78.667 0 138.834 23.333 180.501 70s62.5 111 62.5 193c0 40.667 -5.33301 77.334 -16 110.001s-26.167 60.334 -46.5 83.001s-45.666 40.167 -75.999 52.5
s-65.166 18.5 -104.499 18.5z" />
    <glyph glyph-name="Ntilde" unicode="&#xd1;" horiz-adv-x="704" 
d="M624 0h-81l-368 553v-553h-95v700h103l345 -524v524h96v-700zM418 808c-8 0 -18.0029 2.66602 -30.0029 7.99902l-38.5 17.5l-36.5 17.5c-10.667 5.33301 -19.667 8 -27 8c-35.333 0 -59 -16.333 -71 -49l-36 9c4 14.667 9.33301 27.667 16 39s15 20.833 25 28.5
s20.333 13.334 31 17.001s21 5.5 31 5.5c8.66699 0 19 -2.5 31 -7.5l41 -17l40.5 -17c11.667 -5 20.834 -7.5 27.501 -7.5c28 0 51 17 69 51l34 -9c-7.33301 -28.667 -20.666 -51.5 -39.999 -68.5s-41.666 -25.5 -66.999 -25.5z" />
    <glyph glyph-name="Ograve" unicode="&#xd2;" horiz-adv-x="768" 
d="M632 85c-64 -66 -146.666 -99.001 -247.999 -99.001c-50.667 0 -97.167 8.66699 -139.5 26s-78.666 41.833 -108.999 73.5s-54 69.834 -71 114.501s-25.5 94.667 -25.5 150s8.66699 105.333 26 150s41.166 82.834 71.499 114.501s66.666 56.167 108.999 73.5
s88.5 26 138.5 26s96.167 -8.66699 138.5 -26s78.833 -42 109.5 -74s54.5 -70.333 71.5 -115s25.5 -94.334 25.5 -149.001c0 -110 -32.333 -198.333 -97 -265zM562.001 549.999c-41.333 52 -100.667 78 -178 78c-38.667 0 -73 -7 -103 -21s-55.167 -33.333 -75.5 -58
s-35.833 -54 -46.5 -88s-16 -71 -16 -111s5.33301 -77 16 -111s26.167 -63.333 46.5 -88s45.5 -44 75.5 -58s64.333 -21 103 -21s73 7 103 21s55.333 33.5 76 58.5s36.167 54.333 46.5 88s15.5 70.5 15.5 110.5c0 81.333 -21 148 -63 200zM478 804.999l-187 64v72l187 -95
v-41z" />
    <glyph glyph-name="Oacute" unicode="&#xd3;" horiz-adv-x="768" 
d="M632 85c-64 -66 -146.666 -99.001 -247.999 -99.001c-50.667 0 -97.167 8.66699 -139.5 26s-78.666 41.833 -108.999 73.5s-54 69.834 -71 114.501s-25.5 94.667 -25.5 150s8.66699 105.333 26 150s41.166 82.834 71.499 114.501s66.666 56.167 108.999 73.5
s88.5 26 138.5 26s96.167 -8.66699 138.5 -26s78.833 -42 109.5 -74s54.5 -70.333 71.5 -115s25.5 -94.334 25.5 -149.001c0 -110 -32.333 -198.333 -97 -265zM562.001 549.999c-41.333 52 -100.667 78 -178 78c-38.667 0 -73 -7 -103 -21s-55.167 -33.333 -75.5 -58
s-35.833 -54 -46.5 -88s-16 -71 -16 -111s5.33301 -77 16 -111s26.167 -63.333 46.5 -88s45.5 -44 75.5 -58s64.333 -21 103 -21s73 7 103 21s55.333 33.5 76 58.5s36.167 54.333 46.5 88s15.5 70.5 15.5 110.5c0 81.333 -21 148 -63 200zM477 868.999l-187 -64v41l187 95
v-72z" />
    <glyph glyph-name="Ocircumflex" unicode="&#xd4;" horiz-adv-x="768" 
d="M632 85c-64 -66 -146.666 -99.001 -247.999 -99.001c-50.667 0 -97.167 8.66699 -139.5 26s-78.666 41.833 -108.999 73.5s-54 69.834 -71 114.501s-25.5 94.667 -25.5 150s8.66699 105.333 26 150s41.166 82.834 71.499 114.501s66.666 56.167 108.999 73.5
s88.5 26 138.5 26s96.167 -8.66699 138.5 -26s78.833 -42 109.5 -74s54.5 -70.333 71.5 -115s25.5 -94.334 25.5 -149.001c0 -110 -32.333 -198.333 -97 -265zM562.001 549.999c-41.333 52 -100.667 78 -178 78c-38.667 0 -73 -7 -103 -21s-55.167 -33.333 -75.5 -58
s-35.833 -54 -46.5 -88s-16 -71 -16 -111s5.33301 -77 16 -111s26.167 -63.333 46.5 -88s45.5 -44 75.5 -58s64.333 -21 103 -21s73 7 103 21s55.333 33.5 76 58.5s36.167 54.333 46.5 88s15.5 70.5 15.5 110.5c0 81.333 -21 148 -63 200zM531 811.999l-147 82l-147 -82v36
l147 106l147 -106v-36z" />
    <glyph glyph-name="Otilde" unicode="&#xd5;" horiz-adv-x="768" 
d="M632 85c-64 -66 -146.666 -99.001 -247.999 -99.001c-50.667 0 -97.167 8.66699 -139.5 26s-78.666 41.833 -108.999 73.5s-54 69.834 -71 114.501s-25.5 94.667 -25.5 150s8.66699 105.333 26 150s41.166 82.834 71.499 114.501s66.666 56.167 108.999 73.5
s88.5 26 138.5 26s96.167 -8.66699 138.5 -26s78.833 -42 109.5 -74s54.5 -70.333 71.5 -115s25.5 -94.334 25.5 -149.001c0 -110 -32.333 -198.333 -97 -265zM562.001 549.999c-41.333 52 -100.667 78 -178 78c-38.667 0 -73 -7 -103 -21s-55.167 -33.333 -75.5 -58
s-35.833 -54 -46.5 -88s-16 -71 -16 -111s5.33301 -77 16 -111s26.167 -63.333 46.5 -88s45.5 -44 75.5 -58s64.333 -21 103 -21s73 7 103 21s55.333 33.5 76 58.5s36.167 54.333 46.5 88s15.5 70.5 15.5 110.5c0 81.333 -21 148 -63 200zM450 807.999
c-8 0 -18.0029 2.66602 -30.0029 7.99902l-38.5 17.5l-36.5 17.5c-10.667 5.33301 -19.667 8 -27 8c-35.333 0 -59 -16.333 -71 -49l-36 9c4 14.667 9.33301 27.667 16 39s15 20.833 25 28.5s20.333 13.334 31 17.001s21 5.5 31 5.5c8.66699 0 19 -2.5 31 -7.5l41 -17
l40.5 -17c11.667 -5 20.834 -7.5 27.501 -7.5c28 0 51 17 69 51l34 -9c-7.33301 -28.667 -20.666 -51.5 -39.999 -68.5s-41.666 -25.5 -66.999 -25.5z" />
    <glyph glyph-name="Odieresis" unicode="&#xd6;" horiz-adv-x="768" 
d="M632 85c-64 -66 -146.666 -99.001 -247.999 -99.001c-50.667 0 -97.167 8.66699 -139.5 26s-78.666 41.833 -108.999 73.5s-54 69.834 -71 114.501s-25.5 94.667 -25.5 150s8.66699 105.333 26 150s41.166 82.834 71.499 114.501s66.666 56.167 108.999 73.5
s88.5 26 138.5 26s96.167 -8.66699 138.5 -26s78.833 -42 109.5 -74s54.5 -70.333 71.5 -115s25.5 -94.334 25.5 -149.001c0 -110 -32.333 -198.333 -97 -265zM562.001 549.999c-41.333 52 -100.667 78 -178 78c-38.667 0 -73 -7 -103 -21s-55.167 -33.333 -75.5 -58
s-35.833 -54 -46.5 -88s-16 -71 -16 -111s5.33301 -77 16 -111s26.167 -63.333 46.5 -88s45.5 -44 75.5 -58s64.333 -21 103 -21s73 7 103 21s55.333 33.5 76 58.5s36.167 54.333 46.5 88s15.5 70.5 15.5 110.5c0 81.333 -21 148 -63 200zM508 808.999h-70v100h70v-100z
M330 808.999h-70v100h70v-100z" />
    <glyph glyph-name="multiply" unicode="&#xd7;" horiz-adv-x="439" 
d="M378 155l-36 -36l-123 123l-122 -123l-36 36l123 122l-123 122l36 36l122 -123l123 123l36 -36l-124 -122z" />
    <glyph glyph-name="Oslash" unicode="&#xd8;" horiz-adv-x="768" 
d="M383 -12c-60.667 0 -119.329 14.332 -175.996 42.999l-42 -61h-93l73 105c-70.667 75.333 -106 167 -106 275c0 55.333 8.66699 105.333 26 150s41.166 82.834 71.499 114.501s66.666 56.167 108.999 73.5s88.5 26 138.5 26c57.333 0 114.666 -14 171.999 -42l31 44h92
l-61 -89c74 -74 111 -166.667 111 -278c0 -54 -8.5 -103.167 -25.5 -147.5s-40.667 -82.333 -71 -114s-66.833 -56.167 -109.5 -73.5s-89.334 -26 -140.001 -26zM563.005 547.999l-303.001 -443.002c46 -19.333 87.333 -29 124 -29c38.667 0 72.834 6.83301 102.501 20.5
s54.5 32.834 74.5 57.501s35 53.834 45 87.501s15 70.5 15 110.5c0 84 -19.333 149.333 -58 196zM383.004 624.997c-38 0 -71.667 -6.83203 -101 -20.499s-54 -32.834 -74 -57.501s-35.167 -53.834 -45.5 -87.501s-15.5 -70.5 -15.5 -110.5
c0 -65.333 18.333 -129.666 55 -192.999l301 441c-44 18.667 -84 28 -120 28z" />
    <glyph glyph-name="Ugrave" unicode="&#xd9;" horiz-adv-x="726" 
d="M72 297l-0.00195312 403.002h95v-357c0 -34 2.33301 -67.167 7 -99.5s13.834 -61.333 27.501 -87s33.334 -46.167 59.001 -61.5s59.5 -23 101.5 -23s75.833 8 101.5 24s45.5 36.667 59.5 62s23.167 54.166 27.5 86.499s6.5 65.166 6.5 98.499v357h95v-403
c0 -98.667 -24.167 -175.167 -72.5 -229.5s-120.833 -81.5 -217.5 -81.5s-169.167 27.167 -217.5 81.5s-72.5 130.833 -72.5 229.5zM455.998 805.002l-187 64v72l187 -95v-41z" />
    <glyph glyph-name="Uacute" unicode="&#xda;" horiz-adv-x="726" 
d="M72 297l-0.00195312 403.002h95v-357c0 -34 2.33301 -67.167 7 -99.5s13.834 -61.333 27.501 -87s33.334 -46.167 59.001 -61.5s59.5 -23 101.5 -23s75.833 8 101.5 24s45.5 36.667 59.5 62s23.167 54.166 27.5 86.499s6.5 65.166 6.5 98.499v357h95v-403
c0 -98.667 -24.167 -175.167 -72.5 -229.5s-120.833 -81.5 -217.5 -81.5s-169.167 27.167 -217.5 81.5s-72.5 130.833 -72.5 229.5zM455.998 869.002l-187 -64v41l187 95v-72z" />
    <glyph glyph-name="Ucircumflex" unicode="&#xdb;" horiz-adv-x="726" 
d="M72 297l-0.00195312 403.002h95v-357c0 -34 2.33301 -67.167 7 -99.5s13.834 -61.333 27.501 -87s33.334 -46.167 59.001 -61.5s59.5 -23 101.5 -23s75.833 8 101.5 24s45.5 36.667 59.5 62s23.167 54.166 27.5 86.499s6.5 65.166 6.5 98.499v357h95v-403
c0 -98.667 -24.167 -175.167 -72.5 -229.5s-120.833 -81.5 -217.5 -81.5s-169.167 27.167 -217.5 81.5s-72.5 130.833 -72.5 229.5zM508.998 812.002l-147 82l-147 -82v36l147 106l147 -106v-36z" />
    <glyph glyph-name="Udieresis" unicode="&#xdc;" horiz-adv-x="726" 
d="M72 297l-0.00195312 403.002h95v-357c0 -34 2.33301 -67.167 7 -99.5s13.834 -61.333 27.501 -87s33.334 -46.167 59.001 -61.5s59.5 -23 101.5 -23s75.833 8 101.5 24s45.5 36.667 59.5 62s23.167 54.166 27.5 86.499s6.5 65.166 6.5 98.499v357h95v-403
c0 -98.667 -24.167 -175.167 -72.5 -229.5s-120.833 -81.5 -217.5 -81.5s-169.167 27.167 -217.5 81.5s-72.5 130.833 -72.5 229.5zM486.998 809.002h-70v100h70v-100zM308.998 809.002h-70v100h70v-100z" />
    <glyph glyph-name="Yacute" unicode="&#xdd;" horiz-adv-x="567" 
d="M569 700l-236 -377v-323h-99v323l-237 377h100l186 -291l186 291h100zM389 869l-187 -64v41l187 95v-72z" />
    <glyph glyph-name="Thorn" unicode="&#xde;" horiz-adv-x="570" 
d="M180 125v-125h-100v700h100v-120h124c32.667 0 63.667 -2.5 93 -7.5s55.166 -15.333 77.499 -31s40.166 -37.834 53.499 -66.501s20 -66.334 20 -113.001c0 -45.333 -6.83301 -83.166 -20.5 -113.499s-31.167 -54.666 -52.5 -72.999s-44.666 -31.333 -69.999 -39
s-49.666 -11.5 -72.999 -11.5h-152zM180 495l-0.000976562 -285.002h134c48.667 0 83.334 12.833 104.001 38.5s31 62.167 31 109.5c0 24.667 -2.66699 45.834 -8 63.501s-14.333 31.834 -27 42.501s-29.5 18.5 -50.5 23.5s-46.833 7.5 -77.5 7.5h-106z" />
    <glyph glyph-name="germandbls" unicode="&#xdf;" horiz-adv-x="557" 
d="M328 -10c-12 0 -21.332 0.333008 -27.999 1s-14 1.33398 -22 2.00098v77c28 0 53.333 0.5 76 1.5s41.667 3.66699 57 8s27.166 11.333 35.499 21s12.5 23.5 12.5 41.5c0 18.667 -4.16699 35.834 -12.5 51.501s-18.833 30.334 -31.5 44.001s-26.334 26.334 -41.001 38.001
l-41 34c-12.667 11 -23.167 21.5 -31.5 31.5s-12.5 20 -12.5 30c0 12 5.5 25 16.5 39l37 46.5c13.667 17 26 36 37 57s16.5 44.5 16.5 70.5c0 17.333 -2.66699 31.5 -8 42.5s-12.5 19.833 -21.5 26.5s-19.5 11.167 -31.5 13.5s-24.667 3.5 -38 3.5
c-36 0 -62.667 -8.5 -80 -25.5s-26 -49.167 -26 -96.5v-684h-90v556h-85l12 70h73v87c0 28 5.16699 52.667 15.5 74s24.5 39.333 42.5 54s39 25.834 63 33.501s49.667 11.5 77 11.5c23.333 0 46.333 -3 69 -9s42.834 -15.5 60.501 -28.5s31.834 -29.833 42.501 -50.5
s16 -46 16 -76s-5.16699 -56.5 -15.5 -79.5s-21.5 -42.833 -33.5 -59.5s-23.167 -30.667 -33.5 -42s-15.5 -20.333 -15.5 -27c0 -5.33301 4 -11.833 12 -19.5s18 -16.334 30 -26.001s25 -20.834 39 -33.501s27 -26.834 39 -42.501s22 -32.834 30 -51.501
s12 -39.334 12 -62.001c0 -28 -6.33301 -51.667 -19 -71s-29.334 -35 -50.001 -47s-44.5 -20.833 -71.5 -26.5s-54.5 -8.5 -82.5 -8.5z" />
    <glyph glyph-name="agrave" unicode="&#xe0;" horiz-adv-x="480" 
d="M472 62l-14.002 -72.001h-7c-20 0 -36.667 1.16699 -50 3.5s-24.666 6.33301 -33.999 12s-17.166 13.167 -23.499 22.5s-12.5 20.666 -18.5 33.999c-41.333 -48 -91.333 -72 -150 -72c-46 0 -82.667 13.167 -110 39.5s-41 60.5 -41 102.5c0 34 9.16699 62 27.5 84
s41.666 39.667 69.999 53s59.833 22.833 94.5 28.5s68.334 8.83398 101.001 9.50098c0 44 -8.5 73.833 -25.5 89.5s-44.167 23.5 -81.5 23.5c-42.667 0 -85.667 -14.667 -129 -44l-13 73c44 34 99.333 51 166 51c31.333 0 58 -4.16699 80 -12.5s39.833 -21.666 53.5 -39.999
s23.667 -42.5 30 -72.5s9.5 -66.667 9.5 -110v-100c0 -38.667 3.33301 -65.5 10 -80.5s22 -22.5 46 -22.5h9zM316.998 127.999v117c-72 -2.66699 -123.5 -12.167 -154.5 -28.5s-46.5 -42.833 -46.5 -79.5c0 -50 25.333 -75 76 -75c24 0 47.167 6 69.5 18s40.833 28 55.5 48z
M333.998 595.999l-187 64v72l187 -95v-41z" />
    <glyph glyph-name="aacute" unicode="&#xe1;" horiz-adv-x="480" 
d="M472 62l-14.002 -72.001h-7c-20 0 -36.667 1.16699 -50 3.5s-24.666 6.33301 -33.999 12s-17.166 13.167 -23.499 22.5s-12.5 20.666 -18.5 33.999c-41.333 -48 -91.333 -72 -150 -72c-46 0 -82.667 13.167 -110 39.5s-41 60.5 -41 102.5c0 34 9.16699 62 27.5 84
s41.666 39.667 69.999 53s59.833 22.833 94.5 28.5s68.334 8.83398 101.001 9.50098c0 44 -8.5 73.833 -25.5 89.5s-44.167 23.5 -81.5 23.5c-42.667 0 -85.667 -14.667 -129 -44l-13 73c44 34 99.333 51 166 51c31.333 0 58 -4.16699 80 -12.5s39.833 -21.666 53.5 -39.999
s23.667 -42.5 30 -72.5s9.5 -66.667 9.5 -110v-100c0 -38.667 3.33301 -65.5 10 -80.5s22 -22.5 46 -22.5h9zM316.998 127.999v117c-72 -2.66699 -123.5 -12.167 -154.5 -28.5s-46.5 -42.833 -46.5 -79.5c0 -50 25.333 -75 76 -75c24 0 47.167 6 69.5 18s40.833 28 55.5 48z
M332.998 659.999l-187 -64v41l187 95v-72z" />
    <glyph glyph-name="acircumflex" unicode="&#xe2;" horiz-adv-x="480" 
d="M472 62l-14.002 -72.001h-7c-20 0 -36.667 1.16699 -50 3.5s-24.666 6.33301 -33.999 12s-17.166 13.167 -23.499 22.5s-12.5 20.666 -18.5 33.999c-41.333 -48 -91.333 -72 -150 -72c-46 0 -82.667 13.167 -110 39.5s-41 60.5 -41 102.5c0 34 9.16699 62 27.5 84
s41.666 39.667 69.999 53s59.833 22.833 94.5 28.5s68.334 8.83398 101.001 9.50098c0 44 -8.5 73.833 -25.5 89.5s-44.167 23.5 -81.5 23.5c-42.667 0 -85.667 -14.667 -129 -44l-13 73c44 34 99.333 51 166 51c31.333 0 58 -4.16699 80 -12.5s39.833 -21.666 53.5 -39.999
s23.667 -42.5 30 -72.5s9.5 -66.667 9.5 -110v-100c0 -38.667 3.33301 -65.5 10 -80.5s22 -22.5 46 -22.5h9zM316.998 127.999v117c-72 -2.66699 -123.5 -12.167 -154.5 -28.5s-46.5 -42.833 -46.5 -79.5c0 -50 25.333 -75 76 -75c24 0 47.167 6 69.5 18s40.833 28 55.5 48z
M386.998 602.999l-147 82l-147 -82v36l147 106l147 -106v-36z" />
    <glyph glyph-name="atilde" unicode="&#xe3;" horiz-adv-x="480" 
d="M472 62l-14.002 -72.001h-7c-20 0 -36.667 1.16699 -50 3.5s-24.666 6.33301 -33.999 12s-17.166 13.167 -23.499 22.5s-12.5 20.666 -18.5 33.999c-41.333 -48 -91.333 -72 -150 -72c-46 0 -82.667 13.167 -110 39.5s-41 60.5 -41 102.5c0 34 9.16699 62 27.5 84
s41.666 39.667 69.999 53s59.833 22.833 94.5 28.5s68.334 8.83398 101.001 9.50098c0 44 -8.5 73.833 -25.5 89.5s-44.167 23.5 -81.5 23.5c-42.667 0 -85.667 -14.667 -129 -44l-13 73c44 34 99.333 51 166 51c31.333 0 58 -4.16699 80 -12.5s39.833 -21.666 53.5 -39.999
s23.667 -42.5 30 -72.5s9.5 -66.667 9.5 -110v-100c0 -38.667 3.33301 -65.5 10 -80.5s22 -22.5 46 -22.5h9zM316.998 127.999v117c-72 -2.66699 -123.5 -12.167 -154.5 -28.5s-46.5 -42.833 -46.5 -79.5c0 -50 25.333 -75 76 -75c24 0 47.167 6 69.5 18s40.833 28 55.5 48z
M302.998 598.999c-8 0 -18.0029 2.66602 -30.0029 7.99902l-38.5 17.5l-36.5 17.5c-10.667 5.33301 -19.667 8 -27 8c-35.333 0 -59 -16.333 -71 -49l-36 9c4 14.667 9.33301 27.667 16 39s15 20.833 25 28.5s20.333 13.334 31 17.001s21 5.5 31 5.5
c8.66699 0 19 -2.5 31 -7.5l41 -17l40.5 -17c11.667 -5 20.834 -7.5 27.501 -7.5c28 0 51 17 69 51l34 -9c-7.33301 -28.667 -20.666 -51.5 -39.999 -68.5s-41.666 -25.5 -66.999 -25.5z" />
    <glyph glyph-name="adieresis" unicode="&#xe4;" horiz-adv-x="480" 
d="M472 62l-14.002 -72.001h-7c-20 0 -36.667 1.16699 -50 3.5s-24.666 6.33301 -33.999 12s-17.166 13.167 -23.499 22.5s-12.5 20.666 -18.5 33.999c-41.333 -48 -91.333 -72 -150 -72c-46 0 -82.667 13.167 -110 39.5s-41 60.5 -41 102.5c0 34 9.16699 62 27.5 84
s41.666 39.667 69.999 53s59.833 22.833 94.5 28.5s68.334 8.83398 101.001 9.50098c0 44 -8.5 73.833 -25.5 89.5s-44.167 23.5 -81.5 23.5c-42.667 0 -85.667 -14.667 -129 -44l-13 73c44 34 99.333 51 166 51c31.333 0 58 -4.16699 80 -12.5s39.833 -21.666 53.5 -39.999
s23.667 -42.5 30 -72.5s9.5 -66.667 9.5 -110v-100c0 -38.667 3.33301 -65.5 10 -80.5s22 -22.5 46 -22.5h9zM316.998 127.999v117c-72 -2.66699 -123.5 -12.167 -154.5 -28.5s-46.5 -42.833 -46.5 -79.5c0 -50 25.333 -75 76 -75c24 0 47.167 6 69.5 18s40.833 28 55.5 48z
M363.998 599.999h-70v100h70v-100zM185.998 599.999h-70v100h70v-100z" />
    <glyph glyph-name="aring" unicode="&#xe5;" horiz-adv-x="480" 
d="M472 62l-14.002 -72.001h-7c-20 0 -36.667 1.16699 -50 3.5s-24.666 6.33301 -33.999 12s-17.166 13.167 -23.499 22.5s-12.5 20.666 -18.5 33.999c-41.333 -48 -91.333 -72 -150 -72c-46 0 -82.667 13.167 -110 39.5s-41 60.5 -41 102.5c0 34 9.16699 62 27.5 84
s41.666 39.667 69.999 53s59.833 22.833 94.5 28.5s68.334 8.83398 101.001 9.50098c0 44 -8.5 73.833 -25.5 89.5s-44.167 23.5 -81.5 23.5c-42.667 0 -85.667 -14.667 -129 -44l-13 73c44 34 99.333 51 166 51c31.333 0 58 -4.16699 80 -12.5s39.833 -21.666 53.5 -39.999
s23.667 -42.5 30 -72.5s9.5 -66.667 9.5 -110v-100c0 -38.667 3.33301 -65.5 10 -80.5s22 -22.5 46 -22.5h9zM316.998 127.999v117c-72 -2.66699 -123.5 -12.167 -154.5 -28.5s-46.5 -42.833 -46.5 -79.5c0 -50 25.333 -75 76 -75c24 0 47.167 6 69.5 18s40.833 28 55.5 48z
M240.998 575.999c-32.667 0 -58.167 8.66797 -76.5 26.001s-27.5 38.333 -27.5 63c0 26 9.66699 47.5 29 64.5s46.333 25.5 81 25.5c16 0 30.167 -2.5 42.5 -7.5s22.5 -11.833 30.5 -20.5s14 -18.334 18 -29.001s6 -21.667 6 -33c0 -22.667 -8 -43.167 -24 -61.5
s-40 -27.5 -72 -27.5h-7zM180.998 665c0 -18 6.00195 -32.5 18.002 -43.5s26 -16.5 42 -16.5s30 5.5 42 16.5s18 25.5 18 43.5c0 17.333 -5.83301 31.5 -17.5 42.5s-25.834 16.5 -42.501 16.5s-30.834 -5.5 -42.501 -16.5s-17.5 -25.167 -17.5 -42.5z" />
    <glyph glyph-name="ae" unicode="&#xe6;" horiz-adv-x="798" 
d="M764 245l-336.002 -0.000976562c0 -60 15 -105.5 45 -136.5s70 -46.5 120 -46.5c12 0 22.333 0.5 31 1.5s17.834 3 27.501 6s20.334 6.83301 32.001 11.5l43.5 18l17 -69c-58 -26.667 -112.333 -40 -163 -40c-98.667 0 -165.667 37.667 -201 113
c-17.333 -38 -44.333 -67 -81 -87s-79 -30 -127 -30c-50 0 -87.5 11.5 -112.5 34.5s-37.5 55.5 -37.5 97.5c0 116 100.333 179 301 189c-6 40.667 -17.833 69.667 -35.5 87s-45.167 26 -82.5 26c-35.333 0 -76 -9.66699 -122 -29l-8 70c56 26 108 39 156 39
c13.333 0 28.333 -1.83301 45 -5.5s32.834 -10 48.501 -19s29.5 -21.167 41.5 -36.5s20 -35 24 -59c6.66699 20.667 16.167 38.5 28.5 53.5s26.666 27.5 42.999 37.5s34.333 17.333 54 22s40.167 7 61.5 7c58.667 0 105.167 -17.333 139.5 -52s51.5 -84 51.5 -148
c0 -7.33301 -0.333008 -15.666 -1 -24.999s-1.66699 -19.333 -3 -30zM572.998 419.999c-71.333 0 -117 -37.667 -137 -113h246c0 75.333 -36.333 113 -109 113zM330.998 244.999c-24 0 -48.668 -2 -74.001 -6s-48.666 -10.833 -69.999 -20.5s-38.833 -22 -52.5 -37
s-20.5 -33.5 -20.5 -55.5c0 -42.667 26 -64 78 -64c18.667 0 36.5 2.83301 53.5 8.5s32 14.167 45 25.5s23.333 25.5 31 42.5s11.5 36.833 11.5 59.5c0 9.33301 -0.166992 18 -0.5 26s-0.833008 15 -1.5 21z" />
    <glyph glyph-name="ccedilla" unicode="&#xe7;" horiz-adv-x="454" 
d="M277 -10c-39.333 0 -73.9971 6.5 -103.997 19.5s-55.5 31 -76.5 54s-36.833 50 -47.5 81s-16 64.833 -16 101.5c0 37.333 5.33301 71.5 16 102.5s26.167 57.833 46.5 80.5s45.666 40.167 75.999 52.5s65.166 18.5 104.499 18.5c65.333 0 115.666 -9.66699 150.999 -29
l-14 -81c-41.333 20 -83.666 30 -126.999 30c-54 0 -94.333 -15 -121 -45s-40 -73 -40 -129s13.333 -99.5 40 -130.5s67 -46.5 121 -46.5c44 0 86.667 10 128 30l12 -72c-36.667 -24.667 -86.334 -37 -149.001 -37zM326.003 -54l-88 -133l-46 -5l68 132z" />
    <glyph glyph-name="egrave" unicode="&#xe8;" horiz-adv-x="512" 
d="M478 245l-355.001 -0.000976562c10.667 -116.667 72 -175 184 -175c50 0 97 9.66699 141 29l12 -71c-58 -25.333 -112.667 -38 -164 -38c-41.333 0 -78.5 6.66699 -111.5 20s-60.833 31.5 -83.5 54.5s-40 50.333 -52 82s-18 65.834 -18 102.501
c0 35.333 5.66699 68.333 17 99s27.333 57.167 48 79.5s45.834 40 75.501 53s62.834 19.5 99.501 19.5c31.333 0 60 -4.66699 86 -14s48.167 -23 66.5 -41s32.666 -39.833 42.999 -65.5s15.5 -54.5 15.5 -86.5c0 -18.667 -1.33301 -34.667 -4 -48zM268.999 419.999
c-72.667 0 -118.667 -37.667 -138 -113h258c0 36 -10 63.833 -30 83.5s-50 29.5 -90 29.5zM347.999 595.999l-187 64v72l187 -95v-41z" />
    <glyph glyph-name="eacute" unicode="&#xe9;" horiz-adv-x="512" 
d="M478 245l-355.001 -0.000976562c10.667 -116.667 72 -175 184 -175c50 0 97 9.66699 141 29l12 -71c-58 -25.333 -112.667 -38 -164 -38c-41.333 0 -78.5 6.66699 -111.5 20s-60.833 31.5 -83.5 54.5s-40 50.333 -52 82s-18 65.834 -18 102.501
c0 35.333 5.66699 68.333 17 99s27.333 57.167 48 79.5s45.834 40 75.501 53s62.834 19.5 99.501 19.5c31.333 0 60 -4.66699 86 -14s48.167 -23 66.5 -41s32.666 -39.833 42.999 -65.5s15.5 -54.5 15.5 -86.5c0 -18.667 -1.33301 -34.667 -4 -48zM268.999 419.999
c-72.667 0 -118.667 -37.667 -138 -113h258c0 36 -10 63.833 -30 83.5s-50 29.5 -90 29.5zM348.999 659.999l-187 -64v41l187 95v-72z" />
    <glyph glyph-name="ecircumflex" unicode="&#xea;" horiz-adv-x="512" 
d="M478 245l-355.001 -0.000976562c10.667 -116.667 72 -175 184 -175c50 0 97 9.66699 141 29l12 -71c-58 -25.333 -112.667 -38 -164 -38c-41.333 0 -78.5 6.66699 -111.5 20s-60.833 31.5 -83.5 54.5s-40 50.333 -52 82s-18 65.834 -18 102.501
c0 35.333 5.66699 68.333 17 99s27.333 57.167 48 79.5s45.834 40 75.501 53s62.834 19.5 99.501 19.5c31.333 0 60 -4.66699 86 -14s48.167 -23 66.5 -41s32.666 -39.833 42.999 -65.5s15.5 -54.5 15.5 -86.5c0 -18.667 -1.33301 -34.667 -4 -48zM268.999 419.999
c-72.667 0 -118.667 -37.667 -138 -113h258c0 36 -10 63.833 -30 83.5s-50 29.5 -90 29.5zM401.999 602.999l-147 82l-147 -82v36l147 106l147 -106v-36z" />
    <glyph glyph-name="edieresis" unicode="&#xeb;" horiz-adv-x="512" 
d="M478 245l-355.001 -0.000976562c10.667 -116.667 72 -175 184 -175c50 0 97 9.66699 141 29l12 -71c-58 -25.333 -112.667 -38 -164 -38c-41.333 0 -78.5 6.66699 -111.5 20s-60.833 31.5 -83.5 54.5s-40 50.333 -52 82s-18 65.834 -18 102.501
c0 35.333 5.66699 68.333 17 99s27.333 57.167 48 79.5s45.834 40 75.501 53s62.834 19.5 99.501 19.5c31.333 0 60 -4.66699 86 -14s48.167 -23 66.5 -41s32.666 -39.833 42.999 -65.5s15.5 -54.5 15.5 -86.5c0 -18.667 -1.33301 -34.667 -4 -48zM268.999 419.999
c-72.667 0 -118.667 -37.667 -138 -113h258c0 36 -10 63.833 -30 83.5s-50 29.5 -90 29.5zM378.999 599.999h-70v100h70v-100zM200.999 599.999h-70v100h70v-100z" />
    <glyph glyph-name="igrave" unicode="&#xec;" horiz-adv-x="212" 
d="M151 0h-90v490h90v-490zM200 596l-187 64v72l187 -95v-41z" />
    <glyph glyph-name="iacute" unicode="&#xed;" horiz-adv-x="212" 
d="M151 0h-90v490h90v-490zM201 660l-187 -64v41l187 95v-72z" />
    <glyph glyph-name="icircumflex" unicode="&#xee;" horiz-adv-x="212" 
d="M151 0h-90v490h90v-490zM255 603l-147 82l-147 -82v36l147 106l147 -106v-36z" />
    <glyph glyph-name="idieresis" unicode="&#xef;" horiz-adv-x="212" 
d="M151 0h-90v490h90v-490zM231 600h-70v100h70v-100zM53 600h-70v100h70v-100z" />
    <glyph glyph-name="eth" unicode="&#xf0;" horiz-adv-x="517" 
d="M249 -12c-32 0 -61.501 5.33496 -88.501 16.002s-50.333 25.5 -70 44.5s-35 41.5 -46 67.5s-16.5 54.333 -16.5 85c0 28 4.66699 55.5 14 82.5s22.833 51 40.5 72s39.667 38 66 51s56.5 19.5 90.5 19.5c57.333 0 102.333 -18.333 135 -55
c-2.66699 16 -6.66699 33.167 -12 51.5s-11.833 36.333 -19.5 54s-16.167 34 -25.5 49s-19 26.5 -29 34.5c-51.333 -35.333 -98.333 -56 -141 -62l-30 55c43.333 6 86 23.333 128 52c-40 36 -80.333 54 -121 54l32 42c48 0 97.667 -18.333 149 -55
c20.667 18.667 40.334 40 59.001 64l46 -12c-15.333 -22 -38.333 -50 -69 -84c21.333 -19.333 40.833 -42.5 58.5 -69.5s32.667 -56.167 45 -87.5s22 -64 29 -98s10.5 -68 10.5 -102c0 -51.333 -7.16699 -94.333 -21.5 -129s-32.833 -62.334 -55.5 -83.001
s-48 -35.334 -76 -44.001s-55.333 -13 -82 -13zM253.999 343.002c-19.333 0 -36.667 -3.49902 -52 -10.499s-28.5 -16.667 -39.5 -29s-19.5 -26.5 -25.5 -42.5s-9 -33 -9 -51c0 -20 3 -38.333 9 -55s14.5 -31.334 25.5 -44.001s24.167 -22.5 39.5 -29.5
s32.333 -10.5 51 -10.5c36 0 65 12.833 87 38.5s33 58.5 33 98.5s-10.833 72.5 -32.5 97.5s-50.5 37.5 -86.5 37.5z" />
    <glyph glyph-name="ntilde" unicode="&#xf1;" horiz-adv-x="559" 
d="M503 0l-90 -0.000976562v270c0 52.667 -9.83301 90.834 -29.5 114.501s-52.5 35.5 -98.5 35.5c-65.333 0 -110 -21.333 -134 -64v-356h-90v490h70l10 -52c46.667 41.333 100.667 62 162 62c133.333 0 200 -76.667 200 -230v-270zM346 598.999
c-8 0 -18.0029 2.66602 -30.0029 7.99902l-38.5 17.5l-36.5 17.5c-10.667 5.33301 -19.667 8 -27 8c-35.333 0 -59 -16.333 -71 -49l-36 9c4 14.667 9.33301 27.667 16 39s15 20.833 25 28.5s20.333 13.334 31 17.001s21 5.5 31 5.5c8.66699 0 19 -2.5 31 -7.5l41 -17
l40.5 -17c11.667 -5 20.834 -7.5 27.501 -7.5c28 0 51 17 69 51l34 -9c-7.33301 -28.667 -20.666 -51.5 -39.999 -68.5s-41.666 -25.5 -66.999 -25.5z" />
    <glyph glyph-name="ograve" unicode="&#xf2;" horiz-adv-x="550" 
d="M452 62c-43.333 -48 -102.333 -72 -177 -72c-38 0 -72 6.5 -102 19.5s-55.5 30.833 -76.5 53.5s-37 49.667 -48 81s-16.5 65 -16.5 101c0 36.667 5.66699 70.5 17 101.5s27.5 57.833 48.5 80.5s46.5 40.5 76.5 53.5s63.667 19.5 101 19.5s71 -6.5 101 -19.5
s55.5 -31 76.5 -54s37.167 -50 48.5 -81s17 -64.5 17 -100.5c0 -73.333 -22 -134.333 -66 -183zM386 374c-26 30.667 -63 46 -111 46s-85.167 -15.167 -111.5 -45.5s-39.5 -73.5 -39.5 -129.5s13.167 -99.167 39.5 -129.5s63.5 -45.5 111.5 -45.5c48.667 0 86 15.667 112 47
s39 74 39 128c0 55.333 -13.333 98.333 -40 129zM368 596l-187 64v72l187 -95v-41z" />
    <glyph glyph-name="oacute" unicode="&#xf3;" horiz-adv-x="550" 
d="M452 62c-43.333 -48 -102.333 -72 -177 -72c-38 0 -72 6.5 -102 19.5s-55.5 30.833 -76.5 53.5s-37 49.667 -48 81s-16.5 65 -16.5 101c0 36.667 5.66699 70.5 17 101.5s27.5 57.833 48.5 80.5s46.5 40.5 76.5 53.5s63.667 19.5 101 19.5s71 -6.5 101 -19.5
s55.5 -31 76.5 -54s37.167 -50 48.5 -81s17 -64.5 17 -100.5c0 -73.333 -22 -134.333 -66 -183zM386 374c-26 30.667 -63 46 -111 46s-85.167 -15.167 -111.5 -45.5s-39.5 -73.5 -39.5 -129.5s13.167 -99.167 39.5 -129.5s63.5 -45.5 111.5 -45.5c48.667 0 86 15.667 112 47
s39 74 39 128c0 55.333 -13.333 98.333 -40 129zM368 660l-187 -64v41l187 95v-72z" />
    <glyph glyph-name="ocircumflex" unicode="&#xf4;" horiz-adv-x="550" 
d="M452 62c-43.333 -48 -102.333 -72 -177 -72c-38 0 -72 6.5 -102 19.5s-55.5 30.833 -76.5 53.5s-37 49.667 -48 81s-16.5 65 -16.5 101c0 36.667 5.66699 70.5 17 101.5s27.5 57.833 48.5 80.5s46.5 40.5 76.5 53.5s63.667 19.5 101 19.5s71 -6.5 101 -19.5
s55.5 -31 76.5 -54s37.167 -50 48.5 -81s17 -64.5 17 -100.5c0 -73.333 -22 -134.333 -66 -183zM386 374c-26 30.667 -63 46 -111 46s-85.167 -15.167 -111.5 -45.5s-39.5 -73.5 -39.5 -129.5s13.167 -99.167 39.5 -129.5s63.5 -45.5 111.5 -45.5c48.667 0 86 15.667 112 47
s39 74 39 128c0 55.333 -13.333 98.333 -40 129zM422 603l-147 82l-147 -82v36l147 106l147 -106v-36z" />
    <glyph glyph-name="otilde" unicode="&#xf5;" horiz-adv-x="550" 
d="M452 62c-43.333 -48 -102.333 -72 -177 -72c-38 0 -72 6.5 -102 19.5s-55.5 30.833 -76.5 53.5s-37 49.667 -48 81s-16.5 65 -16.5 101c0 36.667 5.66699 70.5 17 101.5s27.5 57.833 48.5 80.5s46.5 40.5 76.5 53.5s63.667 19.5 101 19.5s71 -6.5 101 -19.5
s55.5 -31 76.5 -54s37.167 -50 48.5 -81s17 -64.5 17 -100.5c0 -73.333 -22 -134.333 -66 -183zM386 374c-26 30.667 -63 46 -111 46s-85.167 -15.167 -111.5 -45.5s-39.5 -73.5 -39.5 -129.5s13.167 -99.167 39.5 -129.5s63.5 -45.5 111.5 -45.5c48.667 0 86 15.667 112 47
s39 74 39 128c0 55.333 -13.333 98.333 -40 129zM341 599c-8 0 -18.0029 2.66602 -30.0029 7.99902l-38.5 17.5l-36.5 17.5c-10.667 5.33301 -19.667 8 -27 8c-35.333 0 -59 -16.333 -71 -49l-36 9c4 14.667 9.33301 27.667 16 39s15 20.833 25 28.5
s20.333 13.334 31 17.001s21 5.5 31 5.5c8.66699 0 19 -2.5 31 -7.5l41 -17l40.5 -17c11.667 -5 20.834 -7.5 27.501 -7.5c28 0 51 17 69 51l34 -9c-7.33301 -28.667 -20.666 -51.5 -39.999 -68.5s-41.666 -25.5 -66.999 -25.5z" />
    <glyph glyph-name="odieresis" unicode="&#xf6;" horiz-adv-x="550" 
d="M452 62c-43.333 -48 -102.333 -72 -177 -72c-38 0 -72 6.5 -102 19.5s-55.5 30.833 -76.5 53.5s-37 49.667 -48 81s-16.5 65 -16.5 101c0 36.667 5.66699 70.5 17 101.5s27.5 57.833 48.5 80.5s46.5 40.5 76.5 53.5s63.667 19.5 101 19.5s71 -6.5 101 -19.5
s55.5 -31 76.5 -54s37.167 -50 48.5 -81s17 -64.5 17 -100.5c0 -73.333 -22 -134.333 -66 -183zM386 374c-26 30.667 -63 46 -111 46s-85.167 -15.167 -111.5 -45.5s-39.5 -73.5 -39.5 -129.5s13.167 -99.167 39.5 -129.5s63.5 -45.5 111.5 -45.5c48.667 0 86 15.667 112 47
s39 74 39 128c0 55.333 -13.333 98.333 -40 129zM399 600h-70v100h70v-100zM221 600h-70v100h70v-100z" />
    <glyph glyph-name="divide" unicode="&#xf7;" horiz-adv-x="592" 
d="M336 440h-89v94h89v-94zM526 245h-460v74h460v-74zM336 20h-89v94h89v-94z" />
    <glyph glyph-name="oslash" unicode="&#xf8;" horiz-adv-x="570" 
d="M286 -13c-22 0 -50.667 3.66699 -86 11l-19 -38h-71l32 66c-72.667 54 -109 126.667 -109 218c0 36 5.83301 69.667 17.5 101s28.5 58.5 50.5 81.5s48.5 41.167 79.5 54.5s65.833 20 104.5 20c24 0 52 -4 84 -12l19 40h74l-34 -66c74 -56 111 -129.333 111 -220
c0 -36 -5.83301 -69.667 -17.5 -101s-28.5 -58.5 -50.5 -81.5s-48.667 -41 -80 -54s-66.333 -19.5 -105 -19.5zM395 393l-163 -330.002c28 -4 46.333 -6 55 -6c24.667 0 46.667 4.83301 66 14.5s35.5 22.834 48.5 39.501s23 36.334 30 59.001s10.5 47 10.5 73
c0 14 -1 28.667 -3 44s-5 29.833 -9 43.5s-8.83301 26 -14.5 37s-12.5 19.5 -20.5 25.5zM284 430.998c-24 0 -45.5 -4.66797 -64.5 -14.001s-35.167 -22.333 -48.5 -39s-23.5 -36.5 -30.5 -59.5s-10.5 -48.167 -10.5 -75.5c0 -45.333 15.333 -94.666 46 -147.999l161 329
c-25.333 4.66699 -43 7 -53 7z" />
    <glyph glyph-name="ugrave" unicode="&#xf9;" horiz-adv-x="524" 
d="M463 0h-80l-10 54c-30.667 -42.667 -76 -64 -136 -64c-120.667 0 -181 71.667 -181 215v285h90v-260c0 -106.667 38 -160 114 -160c52 0 89.667 18.667 113 56v364h90v-490zM372 596l-187 64v72l187 -95v-41z" />
    <glyph glyph-name="uacute" unicode="&#xfa;" horiz-adv-x="524" 
d="M463 0h-80l-10 54c-30.667 -42.667 -76 -64 -136 -64c-120.667 0 -181 71.667 -181 215v285h90v-260c0 -106.667 38 -160 114 -160c52 0 89.667 18.667 113 56v364h90v-490zM372 660l-187 -64v41l187 95v-72z" />
    <glyph glyph-name="ucircumflex" unicode="&#xfb;" horiz-adv-x="524" 
d="M463 0h-80l-10 54c-30.667 -42.667 -76 -64 -136 -64c-120.667 0 -181 71.667 -181 215v285h90v-260c0 -106.667 38 -160 114 -160c52 0 89.667 18.667 113 56v364h90v-490zM426 603l-147 82l-147 -82v36l147 106l147 -106v-36z" />
    <glyph glyph-name="udieresis" unicode="&#xfc;" horiz-adv-x="524" 
d="M463 0h-80l-10 54c-30.667 -42.667 -76 -64 -136 -64c-120.667 0 -181 71.667 -181 215v285h90v-260c0 -106.667 38 -160 114 -160c52 0 89.667 18.667 113 56v364h90v-490zM403 600h-70v100h70v-100zM225 600h-70v100h70v-100z" />
    <glyph glyph-name="yacute" unicode="&#xfd;" horiz-adv-x="505" 
d="M498 490l-300 -732h-100l113 264l-204 468h100l153 -364l138 364h100zM346 660l-187 -64v41l187 95v-72z" />
    <glyph glyph-name="thorn" unicode="&#xfe;" horiz-adv-x="580" 
d="M302 -10c-68.667 0 -119.332 22 -151.999 66v-297h-90v991h90v-312c41.333 41.333 94 62 158 62c36.667 0 69.667 -6.66699 99 -20s54.5 -31.5 75.5 -54.5s37.167 -50 48.5 -81s17 -64.167 17 -99.5s-5.5 -68.5 -16.5 -99.5s-27 -58 -48 -81s-46.833 -41.167 -77.5 -54.5
s-65.334 -20 -104.001 -20zM143.002 245c0 -54.667 12.333 -98.834 37 -132.501s62.667 -50.5 114 -50.5c52 0 92.167 16.833 120.5 50.5s42.5 77.834 42.5 132.501c0 54 -14.167 96.667 -42.5 128s-68.5 47 -120.5 47s-90.167 -15.667 -114.5 -47s-36.5 -74 -36.5 -128z
" />
    <glyph glyph-name="ydieresis" unicode="&#xff;" horiz-adv-x="505" 
d="M498 490l-300 -732h-100l113 264l-204 468h100l153 -364l138 364h100zM375 600h-70v100h70v-100zM197 600h-70v100h70v-100z" />
    <glyph glyph-name="Ccaron" unicode="&#x10c;" 
d="M390 -14c-51.333 0 -98.501 8.66504 -141.501 25.998s-80 42 -111 74s-55.167 70.333 -72.5 115s-26 94.334 -26 149.001c0 54 8.66699 103.333 26 148s41.5 83 72.5 115s67.833 56.833 110.5 74.5s89.667 26.5 141 26.5c71.333 0 136 -13.667 194 -41l-10 -88l-57 20
c-38 15.333 -80.333 23 -127 23c-39.333 0 -74.166 -7 -104.499 -21s-56 -33.333 -77 -58s-37 -54 -48 -88s-16.5 -71 -16.5 -111c0 -39.333 5.33301 -76 16 -110s26.5 -63.5 47.5 -88.5s47 -44.5 78 -58.5s66.5 -21 106.5 -21c10 0 19.667 0.333008 29 1s19 2 29 4l25 5
c5.33301 0.666992 14.333 3.33398 27 8.00098l23 7c3.33301 0.666992 12 3.66699 26 9l23 8l10 -88c-58 -26.667 -122.333 -40 -193 -40zM547.999 907.998l-147 -99l-147 99v41l147 -76l147 76v-41z" />
    <glyph glyph-name="ccaron" unicode="&#x10d;" horiz-adv-x="454" 
d="M277 -10c-39.333 0 -73.9971 6.5 -103.997 19.5s-55.5 31 -76.5 54s-36.833 50 -47.5 81s-16 64.833 -16 101.5c0 37.333 5.33301 71.5 16 102.5s26.167 57.833 46.5 80.5s45.666 40.167 75.999 52.5s65.166 18.5 104.499 18.5c65.333 0 115.666 -9.66699 150.999 -29
l-14 -81c-41.333 20 -83.666 30 -126.999 30c-54 0 -94.333 -15 -121 -45s-40 -73 -40 -129s13.333 -99.5 40 -130.5s67 -46.5 121 -46.5c44 0 86.667 10 128 30l12 -72c-36.667 -24.667 -86.334 -37 -149.001 -37zM415.003 699l-147 -99l-147 99v41l147 -76l147 76v-41z
" />
    <glyph glyph-name="dotlessi" unicode="&#x131;" horiz-adv-x="212" 
d="M151 0h-90v490h90v-490z" />
    <glyph glyph-name="OE" unicode="&#x152;" horiz-adv-x="1071" 
d="M1034 0l-409.999 -0.000976562v83c-46 -35.333 -88.167 -60.333 -126.5 -75s-78.166 -22 -119.499 -22c-50 0 -95.667 8.66699 -137 26s-77 42 -107 74s-53.167 70.333 -69.5 115s-24.5 94.334 -24.5 149.001s8.33301 104.5 25 149.5s40 83.333 70 115
s65.667 56.167 107 73.5s86.666 26 135.999 26c41.333 0 81.166 -7.33301 119.499 -22s80.5 -39.667 126.5 -75v82h401v-85h-310v-205h238v-86h-238v-237h319v-86zM378.001 627.999c-38.667 0 -72.834 -6.83301 -102.501 -20.5s-54.5 -32.834 -74.5 -57.501
s-35.167 -54 -45.5 -88s-15.5 -71.333 -15.5 -112c0 -40 5 -77 15 -111s25 -63.333 45 -88s44.833 -44 74.5 -58s64.167 -21 103.5 -21c38.667 0 72.834 7 102.501 21s54.5 33.333 74.5 58s35 54 45 88s15 71 15 111c0 40.667 -5.16699 78 -15.5 112s-25.5 63.333 -45.5 88
s-44.833 43.834 -74.5 57.501s-63.5 20.5 -101.5 20.5z" />
    <glyph glyph-name="oe" unicode="&#x153;" horiz-adv-x="902" 
d="M868 245l-342.998 0.00195312c0 -38 5.33301 -68.833 16 -92.5s24 -42.334 40 -56.001s33.167 -22.834 51.5 -27.501s35.166 -7 50.499 -7c56 0 107.667 12.333 155 37l10 -77c-48 -21.333 -99 -32 -153 -32c-62 0 -110 8.83301 -144 26.5s-58.667 44.5 -74 80.5
c-14.667 -34 -40.334 -60.333 -77.001 -79s-77.334 -28 -122.001 -28c-38 0 -72.167 6.66699 -102.5 20s-56.166 31.666 -77.499 54.999s-37.666 50.833 -48.999 82.5s-17 65.834 -17 102.501c0 36 5.83301 69.333 17.5 100s28.334 57 50.001 79s48 39.333 79 52
s65.5 19 103.5 19c18.667 0 37.834 -2.16699 57.501 -6.5s38.334 -10.833 56.001 -19.5s33.167 -19.334 46.5 -32.001s23.666 -27.334 30.999 -44.001c8.66699 16 20 30.333 34 43s29.167 23.334 45.5 32.001s33.666 15.334 51.999 20.001s36.5 7 54.5 7
c32 0 61.167 -4.66699 87.5 -14s48.666 -22.833 66.999 -40.5s32.666 -39 42.999 -64s15.5 -53.5 15.5 -85.5c0 -20.667 -1.33301 -37.667 -4 -51zM658.002 420.002c-71.333 0 -115 -37.667 -131 -113h253c-2.66699 36 -14.667 63.833 -36 83.5s-50 29.5 -86 29.5z
M282.002 420.002c-52 0 -91.333 -15.167 -118 -45.5s-40 -73.5 -40 -129.5c0 -56.667 13.167 -100 39.5 -130s65.5 -45 117.5 -45c50 0 87.833 16.5 113.5 49.5s38.5 75.833 38.5 128.5c0 52 -13.167 93.667 -39.5 125s-63.5 47 -111.5 47z" />
    <glyph glyph-name="Scaron" unicode="&#x160;" horiz-adv-x="584" 
d="M280 -14c-96.667 0 -173.002 14.9961 -229.002 44.9961l13 111c62.667 -46.667 135.334 -70 218.001 -70c24 0 46.167 2.16699 66.5 6.5s38 11 53 20s26.667 20.333 35 34s12.5 29.5 12.5 47.5c0 18.667 -4.33301 34.834 -13 48.501s-20.834 25.834 -36.501 36.501
s-34.667 20.334 -57 29.001s-47.166 17.667 -74.499 27l-70 23c-56.667 18.667 -97.167 41.834 -121.5 69.501s-36.5 60.5 -36.5 98.5c0 20 4 41.833 12 65.5s21.5 45.667 40.5 66s44.667 37.166 77 50.499s73.166 20 122.499 20c20 0 40.667 -1.33301 62 -4
s41.833 -6.16699 61.5 -10.5s37.834 -9.5 54.501 -15.5s30.667 -12 42 -18l-10 -101c-84 42 -151 63 -201 63c-19.333 0 -38.5 -2 -57.5 -6s-35.833 -10.333 -50.5 -19s-26.5 -19.334 -35.5 -32.001s-13.5 -28 -13.5 -46c0 -29.333 12.5 -52.166 37.5 -68.499
s62.833 -32.5 113.5 -48.5c14 -4.66699 24.167 -7.66699 30.5 -9s12.5 -2.83301 18.5 -4.5s14.167 -4.33398 24.5 -8.00098s26.833 -10.5 49.5 -20.5l34 -18c8.66699 -4.66699 15.834 -8.66699 21.501 -12s10.167 -6.66602 13.5 -9.99902l25 -26
c15.333 -16 25.5 -33.333 30.5 -52s8.5 -41 10.5 -67c0 -20 -3 -41.167 -9 -63.5s-18.667 -43.166 -38 -62.499s-46.833 -35.5 -82.5 -48.5s-83.5 -19.833 -143.5 -20.5zM438.998 907.996l-147 -99l-147 99v41l147 -76l147 76v-41z" />
    <glyph glyph-name="scaron" unicode="&#x161;" horiz-adv-x="414" 
d="M200 -10c-71.333 0 -127.336 14.334 -168.003 43.001l11 87c13.333 -12 33.833 -23.333 61.5 -34s58.167 -16 91.5 -16c65.333 0 98 20.333 98 61c0 36.667 -32.667 63.667 -98 81c-20 4.66699 -38.833 10.167 -56.5 16.5s-33.5 14.666 -47.5 24.999
s-25.5 23.5 -34.5 39.5s-14.167 36 -15.5 60c0 42 15 77 45 105s76.333 42 139 42c44.667 0 89 -10.667 133 -32l-11 -82c-34.667 28.667 -74.667 43 -120 43c-63.333 0 -95 -22 -95 -66c0 -10.667 1.66699 -19.667 5 -27s9.33301 -13.833 18 -19.5
s20.334 -11.167 35.001 -16.5s33.334 -11.333 56.001 -18c14 -4 29.167 -9.5 45.5 -16.5s31.5 -16.167 45.5 -27.5s25.667 -25.333 35 -42s14 -36.667 14 -60c0 -16 -2.66699 -32.667 -8 -50s-15 -33 -29 -47s-33.167 -25.667 -57.5 -35s-55.166 -14 -92.499 -14z
M345.997 699.001l-147 -99l-147 99v41l147 -76l147 76v-41z" />
    <glyph glyph-name="Ydieresis" unicode="&#x178;" horiz-adv-x="567" 
d="M569 700l-236 -377v-323h-99v323l-237 377h100l186 -291l186 291h100zM420 809h-70v100h70v-100zM242 809h-70v100h70v-100z" />
    <glyph glyph-name="florin" unicode="&#x192;" horiz-adv-x="351" 
d="M371 703l-6.99609 -55c-8.66699 5.33301 -19.334 8 -32.001 8c-20 0 -37.167 -2.66699 -51.5 -8s-26.5 -14.5 -36.5 -27.5s-18.333 -30.167 -25 -51.5s-12.667 -47.666 -18 -78.999h148l-6 -56h-153l-86 -526c-4 -26.667 -10.5 -49.334 -19.5 -68.001
s-18.833 -34 -29.5 -46s-21.667 -20.833 -33 -26.5s-21.333 -8.5 -30 -8.5h-13l-13 63c38 8 61.667 41.667 71 101l80 511h-94l7 56h96l9 61c4 26 11.5 49 22.5 69s24.667 37 41 51s34.666 24.667 54.999 32s42.166 11 65.499 11c11.333 0 28.666 -3.66699 51.999 -11z" />
    <glyph glyph-name="uni0237" unicode="&#x237;" horiz-adv-x="212" 
d="M28 -237l-29.998 -4.99902l-10 69c14.667 1.33301 26.667 3.66602 36 6.99902s16.666 8.5 21.999 15.5s9.16602 16.667 11.499 29s3.5 28.5 3.5 48.5v563h90v-597c0 -21.333 -3.33301 -39.5 -10 -54.5s-15.5 -27.667 -26.5 -38s-24 -18.5 -39 -24.5
s-30.833 -10.333 -47.5 -13z" />
    <glyph glyph-name="circumflex" unicode="&#x2c6;" horiz-adv-x="446" 
d="M370 603l-147 82l-147 -82v36l147 106l147 -106v-36z" />
    <glyph glyph-name="caron" unicode="&#x2c7;" horiz-adv-x="446" 
d="M370 699l-147 -99l-147 99v41l147 -76l147 76v-41z" />
    <glyph glyph-name="ring" unicode="&#x2da;" horiz-adv-x="292" 
d="M146 576c-32.667 0 -58.167 8.66797 -76.5 26.001s-27.5 38.333 -27.5 63c0 26 9.66699 47.5 29 64.5s46.333 25.5 81 25.5c16 0 30.167 -2.5 42.5 -7.5s22.5 -11.833 30.5 -20.5s14 -18.334 18 -29.001s6 -21.667 6 -33c0 -22.667 -8 -43.167 -24 -61.5
s-40 -27.5 -72 -27.5h-7zM86 665.001c0 -18 6.00195 -32.5 18.002 -43.5s26 -16.5 42 -16.5s30 5.5 42 16.5s18 25.5 18 43.5c0 17.333 -5.83301 31.5 -17.5 42.5s-25.834 16.5 -42.501 16.5s-30.834 -5.5 -42.501 -16.5s-17.5 -25.167 -17.5 -42.5z" />
    <glyph glyph-name="tilde" unicode="&#x2dc;" horiz-adv-x="528" 
d="M331 599c-8 0 -18.0029 2.66602 -30.0029 7.99902l-38.5 17.5l-36.5 17.5c-10.667 5.33301 -19.667 8 -27 8c-35.333 0 -59 -16.333 -71 -49l-36 9c4 14.667 9.33301 27.667 16 39s15 20.833 25 28.5s20.333 13.334 31 17.001s21 5.5 31 5.5c8.66699 0 19 -2.5 31 -7.5
l41 -17l40.5 -17c11.667 -5 20.834 -7.5 27.501 -7.5c28 0 51 17 69 51l34 -9c-7.33301 -28.667 -20.666 -51.5 -39.999 -68.5s-41.666 -25.5 -66.999 -25.5z" />
    <glyph glyph-name="endash" unicode="&#x2013;" horiz-adv-x="502" 
d="M445 238h-388v86h388v-86z" />
    <glyph glyph-name="emdash" unicode="&#x2014;" horiz-adv-x="594" 
d="M537 238h-480v86h480v-86z" />
    <glyph glyph-name="quoteleft" unicode="&#x2018;" horiz-adv-x="186" 
d="M43 641l78 109l23 -13l-35 -87l34 -9v-86h-100v86z" />
    <glyph glyph-name="quoteright" unicode="&#x2019;" horiz-adv-x="169" 
d="M143 664l-78 -109l-23 13l35 87l-34 9v86h100v-86z" />
    <glyph glyph-name="quotesinglbase" unicode="&#x201a;" horiz-adv-x="216" 
d="M158 0l-78 -109l-23 13l35 87l-34 9v86h100v-86z" />
    <glyph glyph-name="quotedblleft" unicode="&#x201c;" horiz-adv-x="396" 
d="M43 641l78 109l23 -13l-35 -87l34 -9v-86h-100v86zM253 641l78 109l23 -13l-35 -87l34 -9v-86h-100v86z" />
    <glyph glyph-name="quotedblright" unicode="&#x201d;" horiz-adv-x="379" 
d="M353 664l-78 -109l-23 13l35 87l-34 9v86h100v-86zM143 664l-78 -109l-23 13l35 87l-34 9v86h100v-86z" />
    <glyph glyph-name="quotedblbase" unicode="&#x201e;" horiz-adv-x="446" 
d="M158 0l-78 -109l-23 13l35 87l-34 9v86h100v-86zM388 0l-78 -109l-23 13l35 87l-34 9v86h100v-86z" />
    <glyph glyph-name="dagger" unicode="&#x2020;" horiz-adv-x="424" 
d="M389 373l-158 30l41 -151l-31 -252h-58l-31 252l41 151l-158 -30v85l156 -31l-34 180h110l-34 -180l156 31v-85z" />
    <glyph glyph-name="daggerdbl" unicode="&#x2021;" horiz-adv-x="460" 
d="M407 88l-156 30l34 -177h-110l34 177l-156 -30v84l160 -30l-43 132l43 133l-160 -30v84l156 -30l-34 176h110l-34 -176l156 30v-84l-160 30l43 -133l-43 -132l160 30v-84z" />
    <glyph glyph-name="bullet" unicode="&#x2022;" horiz-adv-x="306" 
d="M230 201c-11.333 -11.333 -23.5 -19.5 -36.5 -24.5s-26.5 -7.5 -40.5 -7.5c-14.667 0 -28.5 3 -41.5 9s-24.5 14 -34.5 24s-18 21.5 -24 34.5s-9 26.833 -9 41.5s3 28.5 9 41.5s14 24.5 24 34.5s21.5 18 34.5 24s26.833 9 41.5 9s28.5 -3 41.5 -9s24.5 -14 34.5 -24
s18 -21.5 24 -34.5s9 -26.833 9 -41.5c0 -14 -2.66699 -27.667 -8 -41s-13.333 -25.333 -24 -36z" />
    <glyph glyph-name="ellipsis" unicode="&#x2026;" horiz-adv-x="676" 
d="M147 0h-90v86h90v-86zM383 0h-90v86h90v-86zM619 0h-90v86h90v-86z" />
    <glyph glyph-name="perthousand" unicode="&#x2030;" horiz-adv-x="1201" 
d="M238 -12h-75l421 712h74zM182 333c-42.667 0 -77.6689 15.6641 -105.002 46.9971s-41 76.333 -41 135c0 30.667 4 57.834 12 81.501s19 43.5 33 59.5s30.167 28.167 48.5 36.5s37.5 12.5 57.5 12.5c20.667 0 39.834 -4 57.501 -12s33 -19.667 46 -35
s23.333 -34.166 31 -56.499s11.5 -48.166 11.5 -77.499c0 -30.667 -3.83301 -57.834 -11.5 -81.501s-18.167 -43.667 -31.5 -60s-29.166 -28.666 -47.499 -36.999s-38.5 -12.5 -60.5 -12.5zM185.998 652.997c-12.667 0 -24.666 -3.16699 -35.999 -9.5
s-21.333 -15.5 -30 -27.5s-15.5 -26.667 -20.5 -44s-7.5 -36.333 -7.5 -57c0 -40 9 -71.667 27 -95s39.333 -35 64 -35c26.667 0 49 12.5 67 37.5s27 58.833 27 101.5c0 19.333 -2.33301 37 -7 53s-11.334 29.667 -20.001 41s-18.5 20 -29.5 26s-22.5 9 -34.5 9z
M654.999 -14.0029c-42.667 0 -77.6689 15.6641 -105.002 46.9971s-41 76.333 -41 135c0 30.667 4 57.834 12 81.501s19 43.5 33 59.5s30.167 28.167 48.5 36.5s37.5 12.5 57.5 12.5c20.667 0 39.834 -4 57.501 -12s33 -19.667 46 -35s23.333 -34.166 31 -56.499
s11.5 -48.166 11.5 -77.499c0 -30.667 -3.83301 -57.834 -11.5 -81.501s-18.167 -43.667 -31.5 -60s-29.166 -28.666 -47.499 -36.999s-38.5 -12.5 -60.5 -12.5zM658.997 305.994c-12.667 0 -24.666 -3.16699 -35.999 -9.5s-21.333 -15.5 -30 -27.5s-15.5 -26.667 -20.5 -44
s-7.5 -36.333 -7.5 -57c0 -40 9 -71.667 27 -95s39.333 -35 64 -35c26.667 0 49 12.5 67 37.5s27 58.833 27 101.5c0 19.333 -2.33301 37 -7 53s-11.334 29.667 -20.001 41s-18.5 20 -29.5 26s-22.5 9 -34.5 9zM1014 -14.0059c-42.667 0 -77.6689 15.6641 -105.002 46.9971
s-41 76.333 -41 135c0 30.667 4 57.834 12 81.501s19 43.5 33 59.5s30.167 28.167 48.5 36.5s37.5 12.5 57.5 12.5c20.667 0 39.834 -4 57.501 -12s33 -19.667 46 -35s23.333 -34.166 31 -56.499s11.5 -48.166 11.5 -77.499c0 -30.667 -3.83301 -57.834 -11.5 -81.501
s-18.167 -43.667 -31.5 -60s-29.166 -28.666 -47.499 -36.999s-38.5 -12.5 -60.5 -12.5zM1018 305.991c-12.667 0 -24.666 -3.16699 -35.999 -9.5s-21.333 -15.5 -30 -27.5s-15.5 -26.667 -20.5 -44s-7.5 -36.333 -7.5 -57c0 -40 9 -71.667 27 -95s39.333 -35 64 -35
c26.667 0 49 12.5 67 37.5s27 58.833 27 101.5c0 19.333 -2.33301 37 -7 53s-11.334 29.667 -20.001 41s-18.5 20 -29.5 26s-22.5 9 -34.5 9z" />
    <glyph glyph-name="guilsinglleft" unicode="&#x2039;" horiz-adv-x="322" 
d="M282 78h-109l-159 206l159 206h109l-159 -206z" />
    <glyph glyph-name="guilsinglright" unicode="&#x203a;" horiz-adv-x="323" 
d="M309 284l-159 -206h-109l159 206l-159 206h109z" />
    <glyph glyph-name="uni2070" unicode="&#x2070;" horiz-adv-x="407" 
d="M200 312c-25.333 0 -48.168 4.49805 -68.501 13.498s-37.833 21.833 -52.5 38.5s-26 36.834 -34 60.501s-12 49.834 -12 78.501c0 29.333 4.5 56.333 13.5 81s21.167 46 36.5 64s33.666 32.167 54.999 42.5s44.333 15.5 69 15.5c24 0 46.167 -4.83301 66.5 -14.5
s38 -23.167 53 -40.5s26.667 -37.833 35 -61.5s12.5 -49.5 12.5 -77.5c0 -30 -4.16699 -57.333 -12.5 -82s-20.166 -45.667 -35.499 -63s-33.666 -30.833 -54.999 -40.5s-45 -14.5 -71 -14.5zM106.998 502.998c0 -42.667 8.66797 -74.333 26.001 -95s40 -31 68 -31
c30 0 54.167 11 72.5 33s27.5 56 27.5 102c0 42 -9.16699 74.167 -27.5 96.5s-40.833 33.5 -67.5 33.5s-49.834 -12 -69.501 -36s-29.5 -58.333 -29.5 -103z" />
    <glyph glyph-name="uni2074" unicode="&#x2074;" horiz-adv-x="330" 
d="M303 423h-49v-103h-74v103h-175l187 275h62v-218h49v-57zM180 480v110l-74 -110h74z" />
    <glyph glyph-name="uni2075" unicode="&#x2075;" horiz-adv-x="307" 
d="M130 313c-11.333 0 -23 1.16797 -35 3.50098s-23.167 5.16602 -33.5 8.49902s-22.833 10 -37.5 20l17 65c23.333 -19.333 52.333 -29 87 -29c52 0 78 20.333 78 61c0 36.667 -33 55 -99 55h-62l25 201h187l-8 -70h-123l-10 -71c56.667 -0.666992 97.834 -10 123.501 -28
s38.5 -46.333 38.5 -85c0 -21.333 -4 -40 -12 -56s-18.833 -29.667 -32.5 -41s-29.334 -19.833 -47.001 -25.5s-36.5 -8.5 -56.5 -8.5z" />
    <glyph glyph-name="uni2076" unicode="&#x2076;" horiz-adv-x="322" 
d="M158 312c-38 0 -68.499 11.833 -91.499 35.5s-34.5 60.5 -34.5 110.5c0 32 6 62.5 18 91.5s26.833 54.5 44.5 76.5s36.667 39.5 57 52.5s38.5 19.5 54.5 19.5l49 -28c-10.667 0 -24.167 -4.83301 -40.5 -14.5s-32 -21.667 -47 -36s-27.833 -29.666 -38.5 -45.999
s-17 -31.5 -19 -45.5c12 12.667 34.667 19 68 19c36 0 65.333 -9.16699 88 -27.5s34 -45.5 34 -81.5c0 -17.333 -3.5 -33.5 -10.5 -48.5s-16.667 -28.333 -29 -40s-27.333 -20.834 -45 -27.501s-36.834 -10 -57.501 -10zM173.001 489
c-20.667 0 -37.333 -4.99902 -50 -14.999s-19 -24.667 -19 -44c0 -16 6.5 -28.833 19.5 -38.5s27.167 -14.5 42.5 -14.5c19.333 0 35 6.16699 47 18.5s18 27.166 18 44.499c0 12.667 -5 24 -15 34s-24.333 15 -43 15z" />
    <glyph glyph-name="uni2077" unicode="&#x2077;" horiz-adv-x="290" 
d="M290 698l-170 -378h-77l139 308h-159v70h267z" />
    <glyph glyph-name="uni2078" unicode="&#x2078;" horiz-adv-x="346" 
d="M167 312c-44.667 0 -78.5 10.3291 -101.5 30.9961s-34.5 46.334 -34.5 77.001c0 40 21 74.667 63 104c-26.667 18.667 -40 47.334 -40 86.001c0 28 9.5 51 28.5 69s49.833 27 92.5 27c42 0 72.167 -8.16699 90.5 -24.5s27.5 -37.5 27.5 -63.5c0 -36 -16.667 -66 -50 -90
c21.333 -8.66699 38.666 -21.667 51.999 -39s20 -36.666 20 -57.999c0 -15.333 -3.16699 -30.166 -9.5 -44.499s-15.666 -27 -27.999 -38s-27.833 -19.833 -46.5 -26.5s-40 -10 -64 -10zM173 649.996c-36 0 -54 -15.667 -54 -47c0 -27.333 17 -45 51 -53
c36.667 8.66699 55 27 55 55c0 30 -17.333 45 -52 45zM175 498.996c-20 -2.66699 -37.168 -10.5 -51.501 -23.5s-21.5 -29.5 -21.5 -49.5c0 -18 6 -32 18 -42s28.667 -15 50 -15c22.667 0 40.334 5.33301 53.001 16s19 25 19 43c0 19.333 -6.33301 35 -19 47
s-28.667 20 -48 24z" />
    <glyph glyph-name="uni2079" unicode="&#x2079;" horiz-adv-x="324" 
d="M164 706c38 0 68.6699 -12.001 92.0029 -36.001s35 -60.333 35 -109c0 -31.333 -5.16699 -61.5 -15.5 -90.5s-24.333 -54.667 -42 -77s-36.834 -40.166 -57.501 -53.499s-40.667 -20 -60 -20l-47 28c10.667 0 24.167 4.16699 40.5 12.5s32.166 19.166 47.499 32.499
s28.5 28.5 39.5 45.5s17.167 34.167 18.5 51.5c-12.667 -12.667 -36.334 -19 -71.001 -19c-36.667 0 -66.167 9.16699 -88.5 27.5s-33.5 44.833 -33.5 79.5c0 18 3.5 34.667 10.5 50s16.833 28.833 29.5 40.5s27.667 20.834 45 27.501s36.333 10 57 10zM151.003 528.999
c20.667 0 37.333 4.83301 50 14.5s19 24.167 19 43.5c0 36 -20.333 54 -61 54c-20 0 -35.667 -6 -47 -18s-17 -26 -17 -42c0 -14.667 4.5 -27 13.5 -37s23.167 -15 42.5 -15z" />
    <glyph glyph-name="uni2080" unicode="&#x2080;" horiz-adv-x="431" 
d="M212 -7c-25.333 0 -48.168 4.49805 -68.501 13.498s-37.833 21.833 -52.5 38.5s-26 36.834 -34 60.501s-12 49.834 -12 78.501c0 29.333 4.5 56.333 13.5 81s21.167 46 36.5 64s33.666 32.167 54.999 42.5s44.333 15.5 69 15.5c24 0 46.167 -4.83301 66.5 -14.5
s38 -23.167 53 -40.5s26.667 -37.833 35 -61.5s12.5 -49.5 12.5 -77.5c0 -30 -4.16699 -57.333 -12.5 -82s-20.166 -45.667 -35.499 -63s-33.666 -30.833 -54.999 -40.5s-45 -14.5 -71 -14.5zM118.998 183.998c0 -42.667 8.66797 -74.333 26.001 -95s40 -31 68 -31
c30 0 54.167 11 72.5 33s27.5 56 27.5 102c0 42 -9.16699 74.167 -27.5 96.5s-40.833 33.5 -67.5 33.5s-49.834 -12 -69.501 -36s-29.5 -58.333 -29.5 -103z" />
    <glyph glyph-name="uni2081" unicode="&#x2081;" horiz-adv-x="237" 
d="M170 1l-75 0.000976562v276c-21.333 -9.33301 -38.333 -15 -51 -17l-6 60c6 0.666992 13 3.16699 21 7.5s15.5 9.16602 22.5 14.499s13.5 11.333 19.5 18s10 13 12 19h57v-378z" />
    <glyph glyph-name="uni2082" unicode="&#x2082;" horiz-adv-x="332" 
d="M286 1l-247.999 -0.00292969c38 51.333 68 93.166 90 125.499s38.5 58.5 49.5 78.5s17.833 35 20.5 45s4 18 4 24c0 16.667 -5 29.667 -15 39s-24 14 -42 14c-34 0 -65 -19.667 -93 -59l-9 65c7.33301 12.667 21.166 24.834 41.499 36.501s45.5 17.5 75.5 17.5
c20 0 37 -2.66699 51 -8s25.5 -12.666 34.5 -21.999s15.667 -20.166 20 -32.499s6.5 -25.5 6.5 -39.5c0 -45.333 -35.333 -116.666 -106 -213.999h120v-70z" />
    <glyph glyph-name="uni2083" unicode="&#x2083;" horiz-adv-x="337" 
d="M141 -7c-11.333 0 -22.8291 1.00195 -34.4961 3.00195s-22.5 4.5 -32.5 7.5s-18.833 6.16699 -26.5 9.5s-12.834 6.66602 -15.501 9.99902l18 66c21.333 -17.333 50.666 -26 87.999 -26c52 0 78 17.333 78 52c0 20 -5.16699 35.667 -15.5 47s-29.833 17 -58.5 17h-52
l6 55h27c51.333 0 77 16 77 48c0 29.333 -20 44 -60 44c-32.667 0 -56.334 -5.66699 -71.001 -17l-11 53c17.333 16.667 47.666 25 90.999 25c24 0 44 -3 60 -9s28.833 -13.667 38.5 -23s16.667 -20 21 -32s6.5 -24.333 6.5 -37c0 -35.333 -13 -60.333 -39 -75
c36 -21.333 54 -52.333 54 -93c0 -20 -4 -37.667 -12 -53s-18.833 -28.333 -32.5 -39s-29.5 -18.834 -47.5 -24.501s-37 -8.5 -57 -8.5z" />
    <glyph glyph-name="uni2084" unicode="&#x2084;" horiz-adv-x="357" 
d="M316 104h-49v-103h-74v103h-175l187 275h62v-218h49v-57zM193 161v110l-74 -110h74z" />
    <glyph glyph-name="uni2085" unicode="&#x2085;" horiz-adv-x="332" 
d="M141 -6c-11.333 0 -23 1.16797 -35 3.50098s-23.167 5.16602 -33.5 8.49902s-22.833 10 -37.5 20l17 65c23.333 -19.333 52.333 -29 87 -29c52 0 78 20.333 78 61c0 36.667 -33 55 -99 55h-62l25 201h187l-8 -70h-123l-10 -71c56.667 -0.666992 97.834 -10 123.501 -28
s38.5 -46.333 38.5 -85c0 -21.333 -4 -40 -12 -56s-18.833 -29.667 -32.5 -41s-29.334 -19.833 -47.001 -25.5s-36.5 -8.5 -56.5 -8.5z" />
    <glyph glyph-name="uni2086" unicode="&#x2086;" horiz-adv-x="347" 
d="M171 -7c-38 0 -68.499 11.833 -91.499 35.5s-34.5 60.5 -34.5 110.5c0 32 6 62.5 18 91.5s26.833 54.5 44.5 76.5s36.667 39.5 57 52.5s38.5 19.5 54.5 19.5l49 -28c-10.667 0 -24.167 -4.83301 -40.5 -14.5s-32 -21.667 -47 -36s-27.833 -29.666 -38.5 -45.999
s-17 -31.5 -19 -45.5c12 12.667 34.667 19 68 19c36 0 65.333 -9.16699 88 -27.5s34 -45.5 34 -81.5c0 -17.333 -3.5 -33.5 -10.5 -48.5s-16.667 -28.333 -29 -40s-27.333 -20.834 -45 -27.501s-36.834 -10 -57.501 -10zM186.001 170
c-20.667 0 -37.333 -4.99902 -50 -14.999s-19 -24.667 -19 -44c0 -16 6.5 -28.833 19.5 -38.5s27.167 -14.5 42.5 -14.5c19.333 0 35 6.16699 47 18.5s18 27.166 18 44.499c0 12.667 -5 24 -15 34s-24.333 15 -43 15z" />
    <glyph glyph-name="uni2087" unicode="&#x2087;" horiz-adv-x="332" 
d="M309 379l-170 -378h-77l139 308h-159v70h267z" />
    <glyph glyph-name="uni2088" unicode="&#x2088;" horiz-adv-x="372" 
d="M180 -7c-44.667 0 -78.5 10.3291 -101.5 30.9961s-34.5 46.334 -34.5 77.001c0 40 21 74.667 63 104c-26.667 18.667 -40 47.334 -40 86.001c0 28 9.5 51 28.5 69s49.833 27 92.5 27c42 0 72.167 -8.16699 90.5 -24.5s27.5 -37.5 27.5 -63.5c0 -36 -16.667 -66 -50 -90
c21.333 -8.66699 38.666 -21.667 51.999 -39s20 -36.666 20 -57.999c0 -15.333 -3.16699 -30.166 -9.5 -44.499s-15.666 -27 -27.999 -38s-27.833 -19.833 -46.5 -26.5s-40 -10 -64 -10zM186 330.996c-36 0 -54 -15.667 -54 -47c0 -27.333 17 -45 51 -53
c36.667 8.66699 55 27 55 55c0 30 -17.333 45 -52 45zM188 179.996c-20 -2.66699 -37.168 -10.5 -51.501 -23.5s-21.5 -29.5 -21.5 -49.5c0 -18 6 -32 18 -42s28.667 -15 50 -15c22.667 0 40.334 5.33301 53.001 16s19 25 19 43c0 19.333 -6.33301 35 -19 47
s-28.667 20 -48 24z" />
    <glyph glyph-name="uni2089" unicode="&#x2089;" horiz-adv-x="346" 
d="M174 387c38 0 68.6699 -12.001 92.0029 -36.001s35 -60.333 35 -109c0 -31.333 -5.16699 -61.5 -15.5 -90.5s-24.333 -54.667 -42 -77s-36.834 -40.166 -57.501 -53.499s-40.667 -20 -60 -20l-47 28c10.667 0 24.167 4.16699 40.5 12.5s32.166 19.166 47.499 32.499
s28.5 28.5 39.5 45.5s17.167 34.167 18.5 51.5c-12.667 -12.667 -36.334 -19 -71.001 -19c-36.667 0 -66.167 9.16699 -88.5 27.5s-33.5 44.833 -33.5 79.5c0 18 3.5 34.667 10.5 50s16.833 28.833 29.5 40.5s27.667 20.834 45 27.501s36.333 10 57 10zM161.003 209.999
c20.667 0 37.333 4.83301 50 14.5s19 24.167 19 43.5c0 36 -20.333 54 -61 54c-20 0 -35.667 -6 -47 -18s-17 -26 -17 -42c0 -14.667 4.5 -27 13.5 -37s23.167 -15 42.5 -15z" />
    <glyph glyph-name="Euro" unicode="&#x20ac;" horiz-adv-x="703" 
d="M174 215l-141.001 -0.000976562l24 69h99c-1.33301 12.667 -2.33301 24.5 -3 35.5s-1 21.167 -1 30.5v19h-89l22 69h76c9.33301 38 23.5 72.167 42.5 102.5s41.833 56 68.5 77s56.834 37.167 90.501 48.5s69.5 17 107.5 17c69.333 0 128 -11.333 176 -34l-12 -98
c-60.667 25.333 -115.334 38 -164.001 38c-97.333 0 -161.333 -50.333 -192 -151h258l-24 -69h-244v-19c0 -11.333 0.5 -22.5 1.5 -33.5s2.16699 -21.833 3.5 -32.5h243l-24 -69h-198c39.333 -69.333 98 -104 176 -104c48.667 0 103.334 12.667 164.001 38l12 -98
c-48 -22.667 -106.667 -34 -176 -34c-68 0 -128 17.333 -180 52s-90.667 83.334 -116 146.001z" />
    <glyph glyph-name="trademark" unicode="&#x2122;" horiz-adv-x="727" 
d="M489 443h-6l-92 163l-33 -269h-52l47 363h29l105 -179l104 179h29l48 -363h-54l-31 268zM290 700l-6 -50h-100v-313h-51v313h-102v50h259z" />
    <glyph glyph-name="B.sc" horiz-adv-x="534" 
d="M290 0l-216 -0.000976562v560h146c38 0 71.167 -2 99.5 -6s51.833 -11.333 70.5 -22s32.667 -25.167 42 -43.5s14 -41.833 14 -70.5c0 -53.333 -16.333 -93 -49 -119c36 -12.667 61.833 -29.5 77.5 -50.5s23.5 -48.833 23.5 -83.5c0 -32.667 -6 -59.667 -18 -81
s-27.833 -38.166 -47.5 -50.499s-42 -21 -67 -26s-50.167 -7.5 -75.5 -7.5zM253 479.999h-86.001v-148h103c56.667 0 85 24.667 85 74c0 29.333 -8.66699 49 -26 59s-42.666 15 -75.999 15zM286.999 255.999h-120v-175h95c46.667 0 81.5 6 104.5 18s34.5 34.333 34.5 67
c0 60 -38 90 -114 90z" />
    <glyph glyph-name="C.sc" horiz-adv-x="537" 
d="M335 -11c-43.333 0 -83.165 6.99902 -119.498 20.999s-67.5 33.667 -93.5 59s-46.333 56 -61 92s-22 75.667 -22 119s7.33301 82.833 22 118.5s35 66.334 61 92.001s57.167 45.5 93.5 59.5s76.166 21 119.499 21c64.667 0 120 -11 166 -33l-10 -87
c-60.667 21.333 -112.667 32 -156 32c-31.333 0 -59 -5 -83 -15s-44.167 -23.833 -60.5 -41.5s-28.833 -39 -37.5 -64s-13 -52.5 -13 -82.5s4.33301 -57.5 13 -82.5s21.167 -46.333 37.5 -64s36.666 -31.5 60.999 -41.5s52.166 -15 83.499 -15
c42.667 0 94.334 10.667 155.001 32l10 -88c-48.667 -21.333 -104 -32 -166 -32z" />
    <glyph glyph-name="D.sc" horiz-adv-x="629" 
d="M295 0h-221.001v560h221c42.667 0 82.334 -6.5 119.001 -19.5s68 -31.5 94 -55.5s46.167 -53.333 60.5 -88s21.5 -73.667 21.5 -117c0 -44 -7.33301 -83.333 -22 -118s-35 -64 -61 -88s-57.167 -42.333 -93.5 -55s-75.833 -19 -118.5 -19zM294.999 472h-128v-384h128
c62.667 0 110.5 17 143.5 51s49.5 81 49.5 141s-16.5 107 -49.5 141s-80.833 51 -143.5 51z" />
    <glyph glyph-name="E.sc" horiz-adv-x="490" 
d="M453 0h-379v560h371v-88h-276v-136h217v-88h-217v-160h284v-88z" />
    <glyph glyph-name="F.sc" horiz-adv-x="459" 
d="M438 472h-271v-136h210v-88h-210v-248h-93v560h364v-88z" />
    <glyph glyph-name="G.sc" horiz-adv-x="583" 
d="M330 -11c-42 0 -80.832 7 -116.499 21s-66.334 33.667 -92.001 59s-45.834 56 -60.501 92s-22 76 -22 120c0 43.333 7.16699 82.833 21.5 118.5s34.666 66.167 60.999 91.5s57.833 45 94.5 59s77 21 121 21c68 0 127 -10.667 177 -32l-9 -87
c-58 20.667 -113.333 31 -166 31c-65.333 0 -114.666 -18.5 -147.999 -55.5s-50 -85.5 -50 -145.5c0 -62.667 17.5 -112.5 52.5 -149.5s86.833 -55.5 155.5 -55.5c32.667 0 63 3.66699 91 11v114h-81v79h175v-250c-11.333 -5.33301 -25.166 -10.5 -41.499 -15.5
s-33.833 -9.5 -52.5 -13.5s-37.5 -7.16699 -56.5 -9.5s-36.833 -3.5 -53.5 -3.5z" />
    <glyph glyph-name="H.sc" horiz-adv-x="646" 
d="M572 0h-93v248h-312v-248h-93v560h93v-223h312v223h93v-560z" />
    <glyph glyph-name="I.sc" horiz-adv-x="241" 
d="M167 0h-93v560h93v-560z" />
    <glyph glyph-name="J.sc" horiz-adv-x="241" 
d="M28 -138h-21l-9 66h12c24.667 0 41.5 5.66699 50.5 17s13.5 30 13.5 56v559h93v-582c0 -77.333 -46.333 -116 -139 -116z" />
    <glyph glyph-name="K.sc" horiz-adv-x="525" 
d="M512 0h-102l-215 296l215 264h102l-215 -264zM167 0h-93v560h93v-560z" />
    <glyph glyph-name="A.sc" horiz-adv-x="534" 
d="M526 0h-97l-55 141h-214l-54 -141h-98l213 560h93zM343 229l-76 189l-76 -189h152z" />
    <glyph glyph-name="M.sc" horiz-adv-x="712" 
d="M666 0h-98l-54 392l-157 -269l-159 269l-54 -392h-98l81 560h78l152 -263l150 263h78z" />
    <glyph glyph-name="N.sc" horiz-adv-x="614" 
d="M540 0h-78l-295 405v-405h-93v560h96l276 -382v382h94v-560z" />
    <glyph glyph-name="O.sc" horiz-adv-x="665" 
d="M543 69c-55.333 -53.333 -125.667 -80.001 -211 -80.001c-42.667 0 -82 7 -118 21s-67 33.667 -93 59s-46.167 56 -60.5 92s-21.5 75.667 -21.5 119s7.16699 82.833 21.5 118.5s34.5 66.334 60.5 92.001s57 45.5 93 59.5s75.333 21 118 21s82 -7 118 -21
s67 -33.833 93 -59.5s46.333 -56.334 61 -92.001s22 -75.167 22 -118.5c0 -87.333 -27.667 -157.666 -83 -210.999zM472.999 426.999c-33.333 37.333 -80.333 56 -141 56c-30.667 0 -57.834 -4.83301 -81.501 -14.5s-43.667 -23.5 -60 -41.5s-28.666 -39.5 -36.999 -64.5
s-12.5 -52.5 -12.5 -82.5s4.16699 -57.5 12.5 -82.5s20.666 -46.5 36.999 -64.5s36.333 -31.833 60 -41.5s50.834 -14.5 81.501 -14.5s57.834 5 81.501 15s43.667 23.833 60 41.5s28.666 39 36.999 64s12.5 52.5 12.5 82.5c0 60.667 -16.667 109.667 -50 147z" />
    <glyph glyph-name="AE.sc" horiz-adv-x="742" 
d="M705 0h-370v138h-175l-74 -138h-94l290 560h415v-89h-259v-135h200v-88h-200v-160h267v-88zM335 228v241l-132 -241h132z" />
    <glyph glyph-name="P.sc" horiz-adv-x="510" 
d="M289 188h-119v-188h-96v560h180c36 0 68.333 -2.5 97 -7.5s53 -14 73 -27s34.833 -30.833 44.5 -53.5s14.5 -52 14.5 -88c0 -37.333 -6 -68.5 -18 -93.5s-27.333 -45 -46 -60s-39.5 -25.833 -62.5 -32.5s-45.5 -10 -67.5 -10zM260 481h-90v-207h104
c40 0 68.833 8.5 86.5 25.5s26.5 44.5 26.5 82.5c0 36 -9.16699 61.5 -27.5 76.5s-51.5 22.5 -99.5 22.5z" />
    <glyph glyph-name="Q.sc" horiz-adv-x="665" 
d="M619 58l-52 -62.001l-57 44c-52 -34 -111.333 -51 -178 -51c-42.667 0 -82 7 -118 21s-67 33.667 -93 59s-46.167 56 -60.5 92s-21.5 75.667 -21.5 119s7.16699 82.833 21.5 118.5s34.5 66.334 60.5 92.001s57 45.5 93 59.5s75.333 21 118 21s82 -7 118 -21
s67 -33.833 93 -59.5s46.333 -56.334 61 -92.001s22 -75.167 22 -118.5c0 -67.333 -19.667 -127.666 -59 -180.999zM332 482.999c-30.667 0 -57.833 -4.83301 -81.5 -14.5s-43.667 -23.5 -60 -41.5s-28.666 -39.5 -36.999 -64.5s-12.5 -52.5 -12.5 -82.5
s4.16699 -57.5 12.5 -82.5s20.666 -46.5 36.999 -64.5s36.333 -31.833 60 -41.5s50.834 -14.5 81.501 -14.5c43.333 0 79.666 7.66699 108.999 23l-80 60l51 64l83 -65c22 30.667 33 71 33 121c0 30 -4.33301 57.5 -13 82.5s-21.5 46.5 -38.5 64.5s-37.667 31.833 -62 41.5
s-51.833 14.5 -82.5 14.5z" />
    <glyph glyph-name="R.sc" horiz-adv-x="537" 
d="M515 0h-99l-128 212h-118v-212h-96v560h204c136.667 0 205 -54 205 -162c0 -73.333 -35 -127.333 -105 -162zM266 483h-96v-183h106c34.667 0 61.667 8 81 24s29 39 29 69c0 60 -40 90 -120 90z" />
    <glyph glyph-name="S.sc" horiz-adv-x="511" 
d="M246 -11c-86 0 -151.332 13 -195.999 39l12 107c47.333 -38.667 109.333 -58 186 -58c84 0 126 23.333 126 70c0 16 -4.83301 29.667 -14.5 41s-23.334 21.333 -41.001 30s-39 16.834 -64 24.501l-83.5 25.5l-48 21c-23.333 10 -42.833 24 -58.5 42s-23.5 43 -23.5 75
c0 20.667 4.33301 41 13 61s21.667 37.667 39 53s39.5 27.666 66.5 36.999s59.167 14 96.5 14c18 0 36.167 -1.16699 54.5 -3.5s35.666 -5.33301 51.999 -9s31.5 -8 45.5 -13s26 -10.167 36 -15.5l-10 -96c-68 33.333 -125.333 50 -172 50c-16 0 -31.5 -1.33301 -46.5 -4
s-28.167 -6.66699 -39.5 -12s-20.333 -12.333 -27 -21s-10 -19 -10 -31c0 -16 4.33301 -28.333 13 -37s21.834 -16.334 39.501 -23.001s39.5 -13.667 65.5 -21s56.667 -17.666 92 -30.999c15.333 -6 30.666 -13 45.999 -21s29 -17.833 41 -29.5s21.833 -26 29.5 -43
s11.5 -37.5 11.5 -61.5c0 -16 -2.5 -33.333 -7.5 -52s-15.667 -36 -32 -52s-39.666 -29.333 -69.999 -40s-70.833 -16 -121.5 -16z" />
    <glyph glyph-name="T.sc" horiz-adv-x="470" 
d="M453 472h-171v-472h-94v472h-171v88h436v-88z" />
    <glyph glyph-name="U.sc" horiz-adv-x="627" 
d="M314 -11c-82 0 -143.667 22.167 -185 66.5s-62 105.5 -62 183.5v321h93v-286c0 -30.667 2.33301 -58.167 7 -82.5s13 -45 25 -62s27.833 -30 47.5 -39s44.5 -13.5 74.5 -13.5c31.333 0 57 5 77 15s35.667 23.833 47 41.5s19 38.5 23 62.5s6 50 6 78v286h93v-321
c0 -78.667 -20.5 -140 -61.5 -184s-102.5 -66 -184.5 -66z" />
    <glyph glyph-name="V.sc" horiz-adv-x="561" 
d="M554 560l-220 -560h-106l-222 560h98l177 -442l175 442h98z" />
    <glyph glyph-name="W.sc" horiz-adv-x="835" 
d="M822 560l-174 -560h-93l-136 404l-140 -404h-95l-167 560h98l126 -425l141 421h74l145 -414l123 418h98z" />
    <glyph glyph-name="X.sc" horiz-adv-x="540" 
d="M529 0h-104l-159 214l-149 -214h-103l204 279l-200 281h108l146 -205l148 205h103l-205 -270z" />
    <glyph glyph-name="Y.sc" horiz-adv-x="504" 
d="M503 560l-203 -308v-252h-96v252l-203 308h99l152 -225l152 225h99z" />
    <glyph glyph-name="Z.sc" horiz-adv-x="483" 
d="M468 560l-299 -472h261v-88h-415l299 472h-261v88h415z" />
    <glyph glyph-name="OE.sc" horiz-adv-x="921" 
d="M884 0l-359 -0.000976562v52c-65.333 -42 -130.666 -63 -195.999 -63c-42.667 0 -81.667 7 -117 21s-65.833 33.667 -91.5 59s-45.667 56 -60 92s-21.5 75.667 -21.5 119s7.16699 82.833 21.5 118.5s34.333 66.334 60 92.001s56.167 45.5 91.5 59.5s74.333 21 117 21
c65.333 0 130.666 -21 195.999 -63v52h351v-88h-258v-136h199v-88h-199v-160h266v-88zM469 426.999c-32 37.333 -78.668 56 -140.001 56c-30.667 0 -57.834 -4.83301 -81.501 -14.5s-43.5 -23.5 -59.5 -41.5s-28.167 -39.5 -36.5 -64.5s-12.5 -52.5 -12.5 -82.5
s4.16699 -57.5 12.5 -82.5s20.5 -46.5 36.5 -64.5s35.833 -31.833 59.5 -41.5s50.834 -14.5 81.501 -14.5s57.834 5 81.501 15s43.5 23.833 59.5 41.5s28 39 36 64s12 52.5 12 82.5c0 61.333 -16.333 110.333 -49 147z" />
    <glyph glyph-name="L.sc" horiz-adv-x="440" 
d="M428 0h-354v560h93v-472h261v-88z" />
    </font>
</defs>
</svg>
